[ Сегодня идет свободное скачивание без начисления Download ]


Статистика раздачи
Нет
 
   
 
Top  
 
 
-Кошмар Матери / A Mother's Nightmare (2012) WEB-DLRip [H.264/720p-LQ]- Русское название: Кошмар Матери
Оригинальное название: A Mother's Nightmare
Год выпуска: 2012
Жанр: Триллер, Криминал, Детектив
Описание фильма:
Ванесса быстро охмуряет Криса занимая собой всё его свободное время и всё больше отдаляя его от друзей и семьи. Мэдди беспокоит внезапное увлечение её сына Криса и что новая девушка так изменила его сына. Матери удаётся узнать тайну Ванессы и она пытается отговорить сына от отношений с девушкой, однако и Ванесса в ответ всячески старается настроить Криса против тех, кто ещё не так давно были значимы для него. Мэдди остаётся лишь предугадывать дальнейшие действия Ванессы и предотвращать их последствия, и если она не успеет разгадать игру, то навсегда потеряет сына..
Режиссер: Вик Сарин
Актеры: Аннабет Гиш, Джессика Лаундес, Грант Гастин, Джей Бразо, Эрик Брекер, Арен Бучольц, Эрика Кэрролл, Сэмюэл Патрик Чу, Баркели Даффилд
Продолжительность: 01:28:55
Перевод:двухголосый закадровый - любительский [Святые сосисочки]
Язык субтитров: Английский
Вид субтитров: Вшитые (Отключаемые)

Дата мировой премьеры: 29 сентября 2012 года
Видеокодек: MPEG-4 AVC/H.264
Битрейт видео: ~4035 kb/s
Размер кадра: 1280 x 720
Качество видео: WEB-DLRip
Аудио#1: MP3, 2.0, ~192 Kbps Русский (двухголосый закадровый - любительский [Святые сосисочки])
Аудио#2: AC-3, 6.0, ~384 Kbps, Английский (Оригинал)
Сэмпл: Ссылка

MI

Общее
Уникальный идентификатор : 253561530752673649448345075520083377306 (0xBEC22CAADC47F42AA8FDEBB206E0BC9A)
Полное имя : E:\[01]\Клуб\Кошмар матери (2012)\A.Mothers.Nightmare.2012.L2.UNRATED.WEBDL.720p.mkv
Формат : Matroska
Версия формата : Version 2
Размер файла : 2,92 Гбайт
Продолжительность : 1 ч. 28 м.
Общий поток : 4705 Кбит/сек
Название фильма : J.C.@NGB
Дата кодирования : UTC 2013-02-27 19:59:42
Программа кодирования : mkvmerge v5.8.0 ('No Sleep / Pillow') built on Sep 2 2012 15:37:04
Библиотека кодирования : libebml v1.2.3 + libmatroska v1.3.0
Видео
Идентификатор : 1
Формат : AVC
Формат/Информация : Advanced Video Codec
Профиль формата : High@L3.1
Параметр CABAC формата : Нет
Параметр ReFrames формата : 2 кадра
Идентификатор кодека : V_MPEG4/ISO/AVC
Продолжительность : 1 ч. 28 м.
Битрейт : 4035 Кбит/сек
Ширина : 1280 пикселей
Высота : 720 пикселей
Соотношение сторон : 16:9
Режим частоты кадров : Постоянный
Частота кадров : 23,976 кадра/сек
Цветовое пространство : YUV
Субдискретизация насыщенности : 4:2:0
Битовая глубина : 8 бит
Тип развёртки : Прогрессивная
Бит/(Пиксели*Кадры) : 0.183
Размер потока : 2,51 Гбайт (86%)
Заголовок : J.C.@NGB
Язык : English
Default : Да
Forced : Нет
Основные цвета : BT.709
Характеристики трансфера : BT.709
Коэффициенты матрицы : BT.709
Аудио #1
Идентификатор : 2
Формат : MPEG Audio
Версия формата : Version 1
Профиль формата : Layer 3
Режим : Joint stereo
Идентификатор кодека : A_MPEG/L3
Идентификатор кодека/Подсказка : MP3
Продолжительность : 1 ч. 28 м.
Вид битрейта : Постоянный
Битрейт : 192 Кбит/сек
Каналы : 2 канала
Частота : 48,0 КГц
Метод сжатия : С потерями
Размер потока : 122 Мбайт (4%)
Язык : Russian
Default : Да
Forced : Нет
Аудио #2
Идентификатор : 3
Формат : AC-3
Формат/Информация : Audio Coding 3
Расширение режима : CM (complete main)
Параметр Endianness формата : Big
Идентификатор кодека : A_AC3
Продолжительность : 1 ч. 28 м.
Вид битрейта : Постоянный
Битрейт : 384 Кбит/сек
Каналы : 6 каналов
Расположение каналов : Front: L C R, Side: L R, LFE
Частота : 48,0 КГц
Битовая глубина : 16 бит
Метод сжатия : С потерями
Размер потока : 244 Мбайт (8%)
Язык : English
Default : Нет
Forced : Нет
Текст
Идентификатор : 4
Формат : UTF-8
Идентификатор кодека : S_TEXT/UTF8
Идентификатор кодека/Информация : UTF-8 Plain Text
Язык : English
Default : Нет
Forced : Нет
Меню
00:00:00.000 : en:Chapter 1
00:08:14.000 : en:Chapter 2
00:19:03.000 : en:Chapter 3
00:28:08.000 : en:Chapter 4
00:39:26.000 : en:Chapter 5
00:47:44.000 : en:Chapter 6
00:55:04.000 : en:Chapter 7
01:03:13.000 : en:Chapter 8
01:11:35.000 : en:Chapter 9
01:27:54.000 : en:Chapter 10
Скриншоты:

Время раздачи: 24/7 по возможности

[Цитировать]



Показать сообщения:    

Текущее время: 09-Дек 08:53

Часовой пояс: UTC + 3


Вы не можете начинать темы
Вы не можете отвечать на сообщения
Вы не можете редактировать свои сообщения
Вы не можете удалять свои сообщения
Вы не можете голосовать в опросах
Вы не можете прикреплять файлы к сообщениям
Вы не можете скачивать файлы

!ВНИМАНИЕ!
Сайт не предоставляет электронные версии произведений, а занимается лишь коллекционированием и каталогизацией ссылок, присылаемых и публикуемых на форуме нашими читателями. Если вы являетесь правообладателем какого-либо представленного материала и не желаете, чтобы ссылка на него находилась в нашем каталоге, свяжитесь с нами, и мы незамедлительно удалим ее. Файлы для обмена на трекере предоставлены пользователями сайта, и администрация не несет ответственности за их содержание. Просьба не заливать файлы, защищенные авторскими правами, а также файлы нелегального содержания!