[ Сегодня идет свободное скачивание без начисления Download ]


Статистика раздачи
Нет
 
   
 
Top  
 
 
-Последний бойскаут / The Last Boy Scout (1991) HDRip- Русское название: Последний бойскаут
Оригинальное название: The Last Boy Scout
Год выпуска: 1991
Жанр: Боевик
Описание фильма:
Крепкий орешек Уиллис задает теперь кое-кому жару на колоритном фоне профессионального футбола. Действия - и весьма жизненного - выше крыши. В паре с чернокожим красавцем Дэймоном Уэйенсом, бывшим футболистом, они попадают в засады, с юмором сокрушают злодеев и дерутся под чутким руководством сценариста Шейна Блека ("Смертельное оружие"), продюсера Джоела Силвера ("Крепкий орешек" и "Смертельное оружие") и режиссера Тони Скотта ("Лучший стрелок"). В результате получился динамичный, лихой боевик. (Иванов М.)
Режиссер: Тони Скотт / Tony Scott
Актеры: Брюс Уиллис / Bruce Willis, Дэймон Уэйнс / Damon Wayans, Челси Филд / Chelsea Field, Ноубл Уиллингэм / Noble Willingham, Даниэль Харрис / Danielle Harris, Тэйлор Негрон / Taylor Negron
Продолжительность: 01:45:24
Перевод: Авторский одноголосый: Гаврилов (ранний), Гаврилов (позднмй), Сербин, Горчаков

Качество / Источник: HDRip
Формат: AVI
Видео: 720x304 (2.37:1), 23.976 fps, XviD MPEG-4 ~1843 kbps avg, 0.35 bit/pixel
Аудио#1: 48 kHz, AC3 Dolby Digital, 3/2 (L,C,R,l,r) + LFE ch, ~448 kbps - Гаврилов (ранний)
Аудио#2: 48 kHz, AC3 Dolby Digital, 3/2 (L,C,R,l,r) + LFE ch, ~448 kbps - Гаврилов (поздний)
Аудио#3: 48 kHz, AC3 Dolby Digital, 3/2 (L,C,R,l,r) + LFE ch, ~448 kbps - Сербин
Аудио#4: 48 kHz, AC3 Dolby Digital, 3/2 (L,C,R,l,r) + LFE ch, ~448 kbps - Горчаков

Дополнительная информация

За дорожку с "голоса" первого перевода Гаврилова спасибо Panas!
Новый перевод Гаврилова взят отсюда. Спасибо е180 за перевод.
А за перевод Сербина спасибо:
Прагматик, rooti89etg, AnryV, denis_mgn_1987, Batman1988, eyrobot, Slimka, GansAn,
Savinex, NZ6220, hulahup, DREADG, Atherix, Loki1982, rebz9i, Kashima_K, Afavorskij

За дорожку с "голоса" спасибо AnryV.
Горчаков с раздачи JollyRoger RG, спасибо раздающему genkasper :aa:

Награды

Премия канала «MTV», 1992 год
Номинации (2):
Лучший экранный дуэт (Брюс Уиллис, Дэймон Уайанс)
Лучшая экшн-сцена

Media Info

Общее
Полное имя : D:\Мои документы\Кинофильмы\Кино\Мои раздачи (незаболваненные)\The Last Boy Scout (2xGavrilov, Serbin, Gorchakov) (HDRip) by A.P..avi
Формат : AVI
Формат/Информация : Audio Video Interleave
Профиль формата : OpenDML
Размер файла : 2,68 Гбайт
Продолжительность : 1 ч. 45 м.
Общий поток : 3642 Кбит/сек
Программа кодирования : VirtualDubMod 1.5.10.3 | www.virtualdub-fr.org || (build 2550/release)
Библиотека кодирования : VirtualDubMod build 2550/release
Видео
Идентификатор : 0
Формат : MPEG-4 Visual
Профиль формата : Advanced [email protected]
Параметр BVOP формата : 1
Параметр QPel формата : Нет
Параметр GMC формата : Без точки перехода
Параметр матрицы формата : Выборочная
Идентификатор кодека : XVID
Идентификатор кодека/Подсказка : XviD
Продолжительность : 1 ч. 45 м.
Битрейт : 1822 Кбит/сек
Ширина : 720 пикселей
Высота : 304 пикселя
Соотношение сторон : 2,35:1
Частота кадров : 23,976 кадра/сек
Цветовое пространство : YUV
Субдискретизация насыщенности : 4:2:0
Битовая глубина : 8 бит
Тип развёртки : Прогрессивная
Метод сжатия : С потерями
Бит/(Пиксели*Кадры) : 0.347
Размер потока : 1,34 Гбайт (50%)
Библиотека кодирования : XviD 73
Аудио #1
Идентификатор : 1
Формат : AC-3
Формат/Информация : Audio Coding 3
Расширение режима : CM (complete main)
Параметр Endianness формата : Big
Идентификатор кодека : 2000
Продолжительность : 1 ч. 45 м.
Вид битрейта : Постоянный
Битрейт : 448 Кбит/сек
Каналы : 6 каналов
Расположение каналов : Front: L C R, Side: L R, LFE
Частота : 48,0 КГц
Битовая глубина : 16 бит
Метод сжатия : С потерями
Размер потока : 338 Мбайт (12%)
Выравнивание : Разделение по промежуткам
Продолжительность промежутка : 42 мс. (1,00 видеокадр)
Время предзагрузки промежутка : 500 мс.
Заголовок : Gavrilov Old
Аудио #2
Идентификатор : 2
Формат : AC-3
Формат/Информация : Audio Coding 3
Расширение режима : CM (complete main)
Параметр Endianness формата : Big
Идентификатор кодека : 2000
Продолжительность : 1 ч. 45 м.
Вид битрейта : Постоянный
Битрейт : 448 Кбит/сек
Каналы : 6 каналов
Расположение каналов : Front: L C R, Side: L R, LFE
Частота : 48,0 КГц
Битовая глубина : 16 бит
Метод сжатия : С потерями
Размер потока : 338 Мбайт (12%)
Выравнивание : Разделение по промежуткам
Продолжительность промежутка : 42 мс. (1,00 видеокадр)
Время предзагрузки промежутка : 500 мс.
Заголовок : Gavrilov New
Аудио #3
Идентификатор : 3
Формат : AC-3
Формат/Информация : Audio Coding 3
Расширение режима : CM (complete main)
Параметр Endianness формата : Big
Идентификатор кодека : 2000
Продолжительность : 1 ч. 45 м.
Вид битрейта : Постоянный
Битрейт : 448 Кбит/сек
Каналы : 6 каналов
Расположение каналов : Front: L C R, Side: L R, LFE
Частота : 48,0 КГц
Битовая глубина : 16 бит
Метод сжатия : С потерями
Размер потока : 338 Мбайт (12%)
Выравнивание : Разделение по промежуткам
Продолжительность промежутка : 42 мс. (1,00 видеокадр)
Время предзагрузки промежутка : 500 мс.
Заголовок : Serbin
Аудио #4
Идентификатор : 4
Формат : AC-3
Формат/Информация : Audio Coding 3
Расширение режима : CM (complete main)
Параметр Endianness формата : Big
Идентификатор кодека : 2000
Продолжительность : 1 ч. 45 м.
Вид битрейта : Постоянный
Битрейт : 448 Кбит/сек
Каналы : 6 каналов
Расположение каналов : Front: L C R, Side: L R, LFE
Частота : 48,0 КГц
Битовая глубина : 16 бит
Метод сжатия : С потерями
Размер потока : 338 Мбайт (12%)
Выравнивание : Разделение по промежуткам
Продолжительность промежутка : 42 мс. (1,00 видеокадр)
Время предзагрузки промежутка : 500 мс.
Заголовок : Gorchakov


Время раздачи: 24/7 Почти всегда

[Цитировать]



Показать сообщения:    

Текущее время: 06-Дек 19:08

Часовой пояс: UTC + 3


Вы не можете начинать темы
Вы не можете отвечать на сообщения
Вы не можете редактировать свои сообщения
Вы не можете удалять свои сообщения
Вы не можете голосовать в опросах
Вы не можете прикреплять файлы к сообщениям
Вы не можете скачивать файлы

!ВНИМАНИЕ!
Сайт не предоставляет электронные версии произведений, а занимается лишь коллекционированием и каталогизацией ссылок, присылаемых и публикуемых на форуме нашими читателями. Если вы являетесь правообладателем какого-либо представленного материала и не желаете, чтобы ссылка на него находилась в нашем каталоге, свяжитесь с нами, и мы незамедлительно удалим ее. Файлы для обмена на трекере предоставлены пользователями сайта, и администрация не несет ответственности за их содержание. Просьба не заливать файлы, защищенные авторскими правами, а также файлы нелегального содержания!