[ Сегодня идет свободное скачивание без начисления Download ]


Статистика раздачи
Нет
 
   
 
Top  
 
 
-Высшая лига / Major League (1989) HDRip- Русское название: Высшая лига
Оригинальное название: Major League
Год выпуска: 1989
Жанр: Спортивная комедия
Описание фильма:
Профессиональный бейсбол — это серьёзный бизнес. Посмотрим, насколько сможет повредить этой серьёзности команда редкостных остолопов из «Высшей лиги».
Итак, что у нас имеется? Самая худшая команда, которую только можно себе представить! Хулиганистый питчер с супермощным броском и постоянными проблемами с законом; потрёпанный кэтчер-ветеран с больными коленями, и ещё двое — один из них беспокоится лишь о том, как он выглядит, а другой — быстро бегает, но бестолково играет.
Этих и других «ассов большого спорта» нанимают в команду «Кливлендские индейцы». Новая владелица этой «команды-мечты» страстно хочет перебраться в Майами, но для этого ей позарез нужен проигрыш наших бедовых бейсболистов.
Кажется, что тщательно подобранная команда образцовых неудачников легко и успешно справится с такой пустяковой задачей, но не тут то было! Наши горе-игроки решили биться «до последнего» и попасть в высшую лигу! Играем в мяч по-настоящему, ребята!

Режиссер: Дэвид С. Уорд / David S. Ward/
Актеры: Том Беренджер /Tom Berenger/, Чарли Шин /Charlie Sheen/, Корбин Бернсен /Corbin Bernsen/, Рене Руссо /Rene Russo/, Джеймс Гаммон /James Gammon/, Маргарет Уиттон /Margaret Whitton/, Уэсли Снайпс /Wesley Snipes/
Продолжительность: 01:46:36
Перевод: Авторский (одноголосый): Александр Кашкин, Василий Горчаков
Торрент перезалит. Все новое.Качество: HDRip
Формат: AVI
Видео: 720x400 (1.80:1), 23.976 fps, XviD MPEG-4 ~2157 kbps avg, 0.31 bit/pixel
Аудио#1: 48 kHz, AC3 Dolby Digital, 6 ch, ~448.00 kbps avg - Кашкин
Аудио#2: 48 kHz, AC3 Dolby Digital, 6 ch, ~384.00 kbps avg - Горчаков

MI

Общее
Полное имя : D:\Мои документы\Кинофильмы\Кино\Мои раздачи (незаболваненные)\Major League (Kashkin, Gorchakov) (HDRip) by A.P..avi
Формат : AVI
Формат/Информация : Audio Video Interleave
Профиль формата : OpenDML
Размер файла : 2,23 Гбайт
Продолжительность : 1 ч. 46 м.
Общий поток : 2997 Кбит/сек
Программа кодирования : VirtualDubMod 1.5.10.3 | www.virtualdub-fr.org || (build 2550/release)
Библиотека кодирования : VirtualDubMod build 2550/release
Видео
Идентификатор : 0
Формат : MPEG-4 Visual
Профиль формата : Advanced Simple@L5
Параметр BVOP формата : 2
Параметр QPel формата : Нет
Параметр GMC формата : Без точки перехода
Параметр матрицы формата : Выборочная
Идентификатор кодека : XVID
Идентификатор кодека/Подсказка : XviD
Продолжительность : 1 ч. 46 м.
Битрейт : 2147 Кбит/сек
Ширина : 720 пикселей
Высота : 400 пикселей
Соотношение сторон : 16:9
Частота кадров : 23,976 кадра/сек
Цветовое пространство : YUV
Субдискретизация насыщенности : 4:2:0
Битовая глубина : 8 бит
Тип развёртки : Прогрессивная
Метод сжатия : С потерями
Бит/(Пиксели*Кадры) : 0.311
Размер потока : 1,60 Гбайт (72%)
Библиотека кодирования : XviD 73
Аудио #1
Идентификатор : 1
Формат : AC-3
Формат/Информация : Audio Coding 3
Расширение режима : CM (complete main)
Параметр Endianness формата : Big
Идентификатор кодека : 2000
Продолжительность : 1 ч. 46 м.
Вид битрейта : Постоянный
Битрейт : 448 Кбит/сек
Каналы : 6 каналов
Расположение каналов : Front: L C R, Side: L R, LFE
Частота : 48,0 КГц
Битовая глубина : 16 бит
Метод сжатия : С потерями
Задержка видео : 1 с. 159 мс.
Размер потока : 342 Мбайт (15%)
Выравнивание : Разделение по промежуткам
Продолжительность промежутка : 42 мс. (1,00 видеокадр)
Время предзагрузки промежутка : 500 мс.
Аудио #2
Идентификатор : 2
Формат : AC-3
Формат/Информация : Audio Coding 3
Расширение режима : CM (complete main)
Параметр Endianness формата : Big
Идентификатор кодека : 2000
Продолжительность : 1 ч. 46 м.
Вид битрейта : Постоянный
Битрейт : 384 Кбит/сек
Каналы : 6 каналов
Расположение каналов : Front: L C R, Side: L R, LFE
Частота : 48,0 КГц
Битовая глубина : 16 бит
Метод сжатия : С потерями
Задержка видео : 1 с. 159 мс.
Размер потока : 293 Мбайт (13%)
Выравнивание : Разделение по промежуткам
Продолжительность промежутка : 42 мс. (1,00 видеокадр)
Время предзагрузки промежутка : 500 мс.


Время раздачи: 24/7 Почти всегда

[Цитировать]



Показать сообщения:    

Текущее время: 29-Апр 07:45

Часовой пояс: UTC + 6


Вы не можете начинать темы
Вы не можете отвечать на сообщения
Вы не можете редактировать свои сообщения
Вы не можете удалять свои сообщения
Вы не можете голосовать в опросах
Вы не можете прикреплять файлы к сообщениям
Вы не можете скачивать файлы

!ВНИМАНИЕ!
Сайт не предоставляет электронные версии произведений, а занимается лишь коллекционированием и каталогизацией ссылок, присылаемых и публикуемых на форуме нашими читателями. Если вы являетесь правообладателем какого-либо представленного материала и не желаете, чтобы ссылка на него находилась в нашем каталоге, свяжитесь с нами, и мы незамедлительно удалим ее. Файлы для обмена на трекере предоставлены пользователями сайта, и администрация не несет ответственности за их содержание. Просьба не заливать файлы, защищенные авторскими правами, а также файлы нелегального содержания!