[ Сегодня идет свободное скачивание без начисления Download ]


Статистика раздачи
Нет
 
   
 
Top  
 
 
Уравнение любви -Год выпуска: 2013
Производство: Россия, "Русские золотые серии"
Жанр: мелодрама
Продолжительность: 00:45:00
Режиссёр: Рауф Кубаев-В ролях: Наталия Антонова, Дмитрий Муляр, Екатерина Волкова, Галина Петрова, Вадим Андреев, Иван Соловьев, Александр Робак, Павел Юлку, Евгения Туркова, Анастасия Пронина, Александр Зельский, Анна Бачалова-Описание: Всю свою жизнь Татьяна посвятила мужу и сыну Денису. Именно поэтому, когда накануне своей свадьбы сын, выпив, садится за руль и сбивает человека, Татьяна, не задумываясь, берет его вину на себя и по приговору суда оказывается в колонии-поселении. Муж и сын Татьяны воспринимают ее поступок как должное. Свадьба Дениса проходит без Татьяны. Непривычная к тяжелому физическому труду и барачному быту, в тюрьме Татьяна становится объектом насмешек и издевательств. Выжить Татьяне помогает только дружеская поддержка Аркадия – единственного осужденного, кто решился встать на ее защиту. Муж и сын Татьяны озабочены только своими бытовыми проблемами и, казалось, забыли о матери... А Татьяна начинает понимать, что не хочет возвращаться домой, боится снова встретиться с эгоизмом мужа и инфантильностью сына, и… уже не представляет свою жизнь без Аркадия. Но выбор Татьяне придется сделать раньше срока - неожиданно Татьяна узнает о своем условно-досрочном освобождении.- -Сэмпл-Качество: HDTVRip 720p
Формат: MKV
Видео кодек: H.264
Аудио кодек: AC3
Видео: 1280x720, 25 fps, x264 AVC ~4100 kbps avg, 0.178 bit/pixel
Аудио: 48 kHz, Audio Coding 3, 2 ch, ~192.00 kbps avg

MI

ОбщееУникальный идентификатор : 179363488099748874438995802755736493334 (0x86F026B9601DF6BAA3A7DE07295F5D16)Полное имя : D:\Раздачи\Уравнение любви 2013 HDTVRip (720p)\Уравнение любви 01 2013 HDTVRip (720p).mkvФормат : MatroskaВерсия формата : Version 2Размер файла : 1,43 ГбайтПродолжительность : 47 м.Общий поток : 4275 Кбит/секДата кодирования : UTC 2013-03-12 01:05:41Программа кодирования : mkvmerge v4.9.1 ('Ich will') сборка от Jul 11 2011 23:53:15Библиотека кодирования : libebml v1.2.1 + libmatroska v1.1.1
ВидеоИдентификатор : 1Формат : AVCФормат/Информация : Advanced Video CodecПрофиль формата : [email protected] CABAC формата : ДаПараметр ReFrames формата : 5 кадровИдентификатор кодека : V_MPEG4/ISO/AVCПродолжительность : 47 м.Битрейт : 4100 Кбит/секШирина : 1280 пикселейВысота : 720 пикселейСоотношение сторон : 16:9Режим частоты кадров : ПостоянныйЧастота кадров : 25,000 кадров/секЦветовое пространство : YUVСубдискретизация насыщенности : 4:2:0Битовая глубина : 8 битТип развёртки : ПрогрессивнаяБит/(Пиксели*Кадры) : 0.178Размер потока : 1,34 Гбайт (94%)Библиотека кодирования : x264 core 116 r2044 392e762Настройки программы : cabac=1 / ref=5 / deblock=1:-1:-1 / analyse=0x3:0x113 / me=umh / subme=10 / psy=1 / psy_rd=0.00:0.10 / mixed_ref=1 / me_range=32 / chroma_me=1 / trellis=2 / 8x8dct=1 / cqm=0 / deadzone=21,11 / fast_pskip=0 / chroma_qp_offset=-1 / threads=12 / sliced_threads=0 / nr=0 / decimate=1 / interlaced=0 / bluray_compat=0 / constrained_intra=0 / bframes=5 / b_pyramid=2 / b_adapt=1 / b_bias=0 / direct=1 / weightb=1 / open_gop=0 / weightp=2 / keyint=250 / keyint_min=25 / scenecut=40 / intra_refresh=0 / rc_lookahead=40 / rc=abr / mbtree=1 / bitrate=4100 / ratetol=1.0 / qcomp=0.60 / qpmin=0 / qpmax=69 / qpstep=4 / ip_ratio=1.40 / aq=1:1.00Default : ДаForced : Нет
АудиоИдентификатор : 2Формат : AC-3Формат/Информация : Audio Coding 3Расширение режима : CM (complete main)Параметр Endianness формата : BigИдентификатор кодека : A_AC3Продолжительность : 47 м.Вид битрейта : ПостоянныйБитрейт : 192 Кбит/секКаналы : 2 каналаРасположение каналов : Front: L RЧастота : 48,0 КГцБитовая глубина : 16 битМетод сжатия : С потерямиРазмер потока : 65,9 Мбайт (4%)Default : ДаForced : Нет

Скриншоты

[Цитировать]



Показать сообщения:    

Текущее время: 05-Дек 03:27

Часовой пояс: UTC + 3


Вы не можете начинать темы
Вы не можете отвечать на сообщения
Вы не можете редактировать свои сообщения
Вы не можете удалять свои сообщения
Вы не можете голосовать в опросах
Вы не можете прикреплять файлы к сообщениям
Вы не можете скачивать файлы

!ВНИМАНИЕ!
Сайт не предоставляет электронные версии произведений, а занимается лишь коллекционированием и каталогизацией ссылок, присылаемых и публикуемых на форуме нашими читателями. Если вы являетесь правообладателем какого-либо представленного материала и не желаете, чтобы ссылка на него находилась в нашем каталоге, свяжитесь с нами, и мы незамедлительно удалим ее. Файлы для обмена на трекере предоставлены пользователями сайта, и администрация не несет ответственности за их содержание. Просьба не заливать файлы, защищенные авторскими правами, а также файлы нелегального содержания!