[ Сегодня идет свободное скачивание без начисления Download ]


Статистика раздачи
Нет
 
   
 
Top  
 
 
-Остров доктора Моро / The Island of Dr. Moreau (1996) BDRip- Русское название: Остров доктора Моро
Оригинальное название: The Island of Dr. Moreau
Страна: США
Производство: New Line Cinema
Год выпуска: 1996
Жанр: Ужасы, Фантастика, Боевик-Описание фильма:
После авиакатастрофы над южными водами Тихого океана в живых остается только работник ООН Эдвард Даглас. В бессознательном состоянии его доставляют на удаленный остров. Человека, доставившего его, зовут Монтгомери. По специальности он - нейрохирург. Вскоре Даглас узнает, что остров принадлежит ученому - доктору Моро, который здесь проводит страшные эксперименты над животными, меняя им генетические коды и пытаясь превратить их в подобие людей. Весь остров населен зверолюдьми. А чтобы держать их в подчинении, ученый ввел каждой особи специальный датчик, при желании доктора вызывающий у подопытного существа болевые ощущения...-Режиссер: Джон Франкенхаймер / John Frankenheimer
Актеры: Марлон Брандо, Вэл Килмер, Рон Перлман, Дэвид Тьюлис, Файруза Балк, Марко Хофшнайдер, Темуэра Моррисон, Уильям Хуткинс, Даниель Ригни, Нельсон Де Ла Роза-Продолжительность: 01:40:30
Перевод: Многоголосый закадровый |Студия "Велес" CP-Digital| + 3x Авторский |одноголосый закадровый| Ю.Живов, В.Горчаков, В.Горчаков-ранний с HiFi VHS
Оригинальная аудиодорожка: английский
Cубтитры: русские,английские
Формат субтитров: softsub (SRT)- -
Рейтинг PG-13 - Детям до 13 лет просмотр не желателен-Видеокодек: MPEG-4 AVC/H.264
Битрейт видео: ~10.7 Mbps
Размер кадра: 1920х800
Качество видео: BDRip-Аудио 1: Русский DTS, 3/2 (L,C,R,l,r) + LFE ch, ~1509 kbps avg | CP-Digital
Аудио 2: Русский DTS, 3/2 (L,C,R,l,r) + LFE ch, ~1509 kbps avg | Ю.Живов
Аудио 3: Русский DTS, 3/2 (L,C,R,l,r) + LFE ch, ~1509 kbps avg | В.Горчаков
Аудио 4: Русский AC3, 2/0 (L,R) ch, ~192 kbps avg | В.Горчаков-ранний
Аудио 5: Английский DTS, 3/2 (L,C,R,l,r) + LFE ch, ~1509 kbps avg | Оригинал
-

Знаете ли вы, что...

Данный фильм является третьей экранизацией одноименного романа Герберта Уэллса.
Текст доктора Моро для Брандо наговаривали в наушник.
-

MediaInfo:

General
Complete name : O:\The Island of Dr. Moreau[Director's Cut].(1996).BDRip.1080p.4xRus.Eng.mkv
Format : Matroska
File size : 12.2 GiB
Duration : 1h 40mn
Overall bit rate : 17.3 Mbps
Movie name : Остров доктора Моро / The Island of Dr. Moreau [Director's Cut].1996
Encoded date : UTC 2012-08-22 11:52:34
Writing application : mkvmerge v3.4.0 ('Rapunzel') сборка от May 15 2010 09:38:20
Writing library : libebml v0.8.0 + libmatroska v0.9.0
Video
ID : 1
Format : AVC
Format/Info : Advanced Video Codec
Format profile : High@L4.1
Format settings, CABAC : Yes
Format settings, ReFrames : 4 frames
Muxing mode : Container profile=Unknown@4.1
Codec ID : V_MPEG4/ISO/AVC
Duration : 1h 40mn
Bit rate : 10.7 Mbps
Nominal bit rate : 11.1 Mbps
Width : 1 920 pixels
Height : 800 pixels
Display aspect ratio : 2.40:1
Frame rate : 23.976 fps
Resolution : 8 bits
Colorimetry : 4:2:0
Scan type : Progressive
Bits/(Pixel*Frame) : 0.292
Stream size : 7.54 GiB (62%)
Writing library : x264 core 125 r2200 999b753
Encoding settings : cabac=1 / ref=4 / deblock=1:-3:-3 / analyse=0x3:0x133 / me=umh / subme=11 / psy=1 / psy_rd=1.05:0.00 / mixed_ref=1 / me_range=32 / chroma_me=1 / trellis=2 / 8x8dct=1 / cqm=0 / deadzone=21,11 / fast_pskip=0 / chroma_qp_offset=-2 / threads=12 / lookahead_threads=2 / sliced_threads=0 / nr=0 / decimate=1 / interlaced=0 / bluray_compat=0 / constrained_intra=0 / bframes=10 / b_pyramid=2 / b_adapt=2 / b_bias=0 / direct=3 / weightb=1 / open_gop=0 / weightp=2 / keyint=240 / keyint_min=22 / scenecut=40 / intra_refresh=0 / rc_lookahead=60 / rc=2pass / mbtree=1 / bitrate=11100 / ratetol=1.0 / qcomp=0.70 / qpmin=0 / qpmax=69 / qpstep=4 / cplxblur=20.0 / qblur=0.5 / vbv_maxrate=50000 / vbv_bufsize=62500 / nal_hrd=none / ip_ratio=1.40 / aq=2:1.00
Language : English
Matrix coefficients : BT.709-5, BT.1361, IEC 61966-2-4 709, SMPTE RP177
Audio #1
ID : 2
Format : DTS
Format/Info : Digital Theater Systems
Codec ID : A_DTS
Duration : 1h 40mn
Bit rate mode : Constant
Bit rate : 1 510 Kbps
Channel(s) : 6 channels
Channel positions : Front: L C R, Surround: L R, LFE
Sampling rate : 48.0 KHz
Resolution : 24 bits
Stream size : 1.06 GiB (9%)
Title : DTS 5.1 MVO-Studio Veles
Language : Russian
Audio #2
ID : 3
Format : DTS
Format/Info : Digital Theater Systems
Codec ID : A_DTS
Duration : 1h 40mn
Bit rate mode : Constant
Bit rate : 1 510 Kbps
Channel(s) : 6 channels
Channel positions : Front: L C R, Surround: L R, LFE
Sampling rate : 48.0 KHz
Resolution : 24 bits
Stream size : 1.06 GiB (9%)
Title : DTS 5.1 AVO- Ю.Живов
Language : Russian
Audio #3
ID : 4
Format : DTS
Format/Info : Digital Theater Systems
Codec ID : A_DTS
Duration : 1h 40mn
Bit rate mode : Constant
Bit rate : 1 510 Kbps
Channel(s) : 6 channels
Channel positions : Front: L C R, Surround: L R, LFE
Sampling rate : 48.0 KHz
Resolution : 24 bits
Stream size : 1.06 GiB (9%)
Title : DTS 5.1 AVO- В.Горчаков
Language : Russian
Audio #4
ID : 5
Format : AC-3
Format/Info : Audio Coding 3
Format profile : Dolby Digital
Codec ID : A_AC3
Duration : 1h 40mn
Bit rate mode : Constant
Bit rate : 192 Kbps
Channel(s) : 2 channels
Channel positions : L R
Sampling rate : 48.0 KHz
Stream size : 138 MiB (1%)
Title : AC3 2.0 AVO-В.Горчаков(ранний перевод HiFi VHS)
Language : Russian
Audio #5
ID : 6
Format : DTS
Format/Info : Digital Theater Systems
Codec ID : A_DTS
Duration : 1h 40mn
Bit rate mode : Constant
Bit rate : 1 510 Kbps
Channel(s) : 6 channels
Channel positions : Front: L C R, Surround: L R, LFE
Sampling rate : 48.0 KHz
Resolution : 24 bits
Stream size : 1.06 GiB (9%)
Title : DTS 5.1 Original
Language : English
Text #1
ID : 7
Format : UTF-8
Codec ID : S_TEXT/UTF8
Codec ID/Info : UTF-8 Plain Text
Language : Russian
Text #2
ID : 8
Format : UTF-8
Codec ID : S_TEXT/UTF8
Codec ID/Info : UTF-8 Plain Text
Language : English
Menu
00:00:00.000 : en:00:00:00.000
00:02:55.801 : en:00:02:55.801
00:08:55.994 : en:00:08:55.994
00:13:31.602 : en:00:13:31.602
00:18:52.631 : en:00:18:52.631
00:20:42.116 : en:00:20:42.116
00:23:55.184 : en:00:23:55.184
00:26:53.695 : en:00:26:53.695
00:29:47.077 : en:00:29:47.077
00:32:58.560 : en:00:32:58.560
00:35:49.898 : en:00:35:49.898
00:41:54.262 : en:00:41:54.262
00:43:40.868 : en:00:43:40.868
00:50:05.878 : en:00:50:05.878
00:53:12.231 : en:00:53:12.231
00:55:35.541 : en:00:55:35.541
00:58:22.332 : en:00:58:22.332
01:05:35.140 : en:01:05:35.140
01:08:24.142 : en:01:08:24.142
01:14:41.018 : en:01:14:41.018
01:19:08.035 : en:01:19:08.035
01:21:33.764 : en:01:21:33.764
01:26:04.534 : en:01:26:04.534
01:32:30.545 : en:01:32:30.545
01:36:02.757 : en:01:36:02.757
-Скриншоты:

Время раздачи: 24/7 - круглосуточно

[Цитировать]



Показать сообщения:    

Текущее время: 22-Янв 15:17

Часовой пояс: UTC + 3


Вы не можете начинать темы
Вы не можете отвечать на сообщения
Вы не можете редактировать свои сообщения
Вы не можете удалять свои сообщения
Вы не можете голосовать в опросах
Вы не можете прикреплять файлы к сообщениям
Вы не можете скачивать файлы

!ВНИМАНИЕ!
Сайт не предоставляет электронные версии произведений, а занимается лишь коллекционированием и каталогизацией ссылок, присылаемых и публикуемых на форуме нашими читателями. Если вы являетесь правообладателем какого-либо представленного материала и не желаете, чтобы ссылка на него находилась в нашем каталоге, свяжитесь с нами, и мы незамедлительно удалим ее. Файлы для обмена на трекере предоставлены пользователями сайта, и администрация не несет ответственности за их содержание. Просьба не заливать файлы, защищенные авторскими правами, а также файлы нелегального содержания!