[ Сегодня идет свободное скачивание без начисления Download ]


Статистика раздачи
Нет
 
   
 
Top  
 
 
-Лоре / Lore (2012) BDRip- Русское название: Лоре
Оригинальное название: Lore
Производство: Германия, Австралия, Великобритания - Rohfilm, Porchlight Films, Edge City Films
Год выпуска: 2012
Жанр: Драма, Военный
Перевод: Одноголосый закадровый, любительский
Озвучка / Автор перевода: Andi
Язык субтитров: Русский, английский (неотключаемые)
Вид субтитров: Вшитые, отключаемые + Вшитые, неотключаемые
Описание фильма:
Германия. 1945 год. Самый конец войны. Группа детей отправляется в путешествие по разоренной Германии, чтобы добраться до бабушки, которая живет на севере страны Старшая, Лоре, осталась одна с четырьмя младшими братьями и сестрой после того, как их родители, члены СС, были арестованы союзниками. Это путешествие покажет детям настоящий реальный мир и последствия действий их родителей. После того, как они встречают Томаса, молодого еврея, ненависть и желание начинают терзать Лоре. Она замирает от страха при виде его, но вынуждена доверять тому, кого она привыкла считать врагом.
Режиссер: Кейт Шортланд / Cate Shortland
Актеры: Саския Розендаль, Неле Требс, Мика Сидел, Кай-Петер Малина, Урсина Ларди, Ханс-Йохен Вагнер, Свен Пиппиг, Филип Виграц- -Дата мировой премьеры: 9 июня 2012
Продолжительность: 01:44:50
Качество видео: BDRip 1080p
Видеокодек: MPEG-4 AVC/H.264
Видео: H.264, 8935 Кбит/с, 1920x1040
Аудио #1: Русский: AC3, 5.1, 448 Кбит/с - одноголосый закадровый, любительский
Аудио #2: Немецкий: DTS, 5.1, 1536 Кбит/с

Рецензия, отзыв о фильме

Трогает, берет за душу, не оставляет равнодушным.
Словами можно сказать многое, но главного не передать. Что делать, когда твой мир рушится на глазах? Когда ты, сама еще ребенок, должна спасти не только себя, но и четверых братьев и сестер? Когда родителей больше нет рядом? Когда каждый может оказаться врагом? А самое главное, когда все, чему тебя учили с детства, оказалось ложью?
Лоре не знает ответов. Она просто старается выжить. Спасти себя и защитить семью. Главной целью, как в сказке про красную шапочку, становится — добраться до бабушкиного дома. И тогда все будет хорошо, все станет по-прежнему. Но хорошо уже не будет, потому что пережитое нельзя оставить позади. Такое не забывается.
Потерян смысл, а чтобы найти новый нужно приложить много усилий, да и получится ли когда-нибудь его найти? Режиссер фильма не дает ответа на этот вопрос, как впрочем и на все остальные. Фильм не поучает, не старается навязать свою точку зрения, свою идею, он просто показывает, демонстрирует, констатирует факты. А выводы должен делать зритель. Каждый сам для себя.

MediaInfo

Общее
Уникальный идентификатор : 253719423163283901144330013738588668874 (0xBEE0955D42860414A52A03A44FF383CA)
Полное имя : D:\Video\Lore.2012.x264.BDRip.1080p.ac3.dts.Rus.Ger.mkv
Формат : Matroska
Версия формата : Version 2
Размер файла : 7,98 Гбайт
Продолжительность : 1 ч. 44 м.
Общий поток : 10,9 Мбит/сек
Название фильма : VarMkn
Дата кодирования : UTC 2013-03-25 11:01:44
Программа кодирования : mkvmerge v5.4.0 ('Piper') built on Mar 10 2012 13:34:39
Библиотека кодирования : libebml v1.2.3 + libmatroska v1.3.0
Видео
Идентификатор : 1
Формат : AVC
Формат/Информация : Advanced Video Codec
Профиль формата : High@L4.1
Параметр CABAC формата : Да
Параметр ReFrames формата : 4 кадра
Идентификатор кодека : V_MPEG4/ISO/AVC
Продолжительность : 1 ч. 44 м.
Битрейт : 8935 Кбит/сек
Ширина : 1920 пикселей
Высота : 1040 пикселей
Соотношение сторон : 16:9
Частота кадров : 25,000 кадров/сек
Цветовое пространство : YUV
Субдискретизация насыщенности : 4:2:0
Битовая глубина : 8 бит
Тип развёртки : Прогрессивная
Бит/(Пиксели*Кадры) : 0.179
Размер потока : 6,39 Гбайт (80%)
Библиотека кодирования : x264 core 129 r2245 bc13772
Настройки программы : cabac=1 / ref=4 / deblock=1:0:0 / analyse=0x3:0x133 / me=umh / subme=8 / psy=1 / psy_rd=1.00:0.00 / mixed_ref=1 / me_range=16 / chroma_me=1 / trellis=1 / 8x8dct=1 / cqm=0 / deadzone=21,11 / fast_pskip=0 / chroma_qp_offset=-2 / threads=12 / lookahead_threads=2 / sliced_threads=0 / nr=0 / decimate=1 / interlaced=0 / bluray_compat=0 / constrained_intra=0 / bframes=3 / b_pyramid=2 / b_adapt=1 / b_bias=0 / direct=1 / weightb=1 / open_gop=0 / weightp=2 / keyint=250 / keyint_min=25 / scenecut=40 / intra_refresh=0 / rc_lookahead=40 / rc=2pass / mbtree=1 / bitrate=8935 / ratetol=1.0 / qcomp=0.60 / qpmin=0 / qpmax=69 / qpstep=4 / cplxblur=20.0 / qblur=0.5 / ip_ratio=1.40 / aq=1:1.00
Язык : English
Default : Да
Forced : Нет
Аудио #1
Идентификатор : 2
Формат : AC-3
Формат/Информация : Audio Coding 3
Расширение режима : CM (complete main)
Идентификатор кодека : A_AC3
Продолжительность : 1 ч. 44 м.
Вид битрейта : Постоянный
Битрейт : 448 Кбит/сек
Каналы : 6 каналов
Расположение каналов : Front: L C R, Side: L R, LFE
Частота : 48,0 КГц
Битовая глубина : 16 бит
Метод сжатия : С потерями
Размер потока : 336 Мбайт (4%)
Заголовок : DD @ AC3 448 - VO Andi
Язык : Russian
Default : Да
Forced : Нет
Аудио #2
Идентификатор : 3
Формат : DTS
Формат/Информация : Digital Theater Systems
Идентификатор кодека : A_DTS
Продолжительность : 1 ч. 44 м.
Вид битрейта : Постоянный
Битрейт : 1510 Кбит/сек
Каналы : 6 каналов
Расположение каналов : Front: L C R, Side: L R, LFE
Частота : 48,0 КГц
Битовая глубина : 16 бит
Метод сжатия : С потерями
Задержка видео : 11 мс.
Размер потока : 1,11 Гбайт (14%)
Заголовок : DTS @ 1536 German
Язык : German
Default : Нет
Forced : Нет
Текст
Идентификатор : 4
Формат : UTF-8
Идентификатор кодека : S_TEXT/UTF8
Идентификатор кодека/Информация : UTF-8 Plain Text
Заголовок : Russian Subtitles
Язык : Russian
Default : Нет
Forced : Нет
Скриншоты:

Время раздачи: с 10:00 до 20:00 (GMT+2) - до 10 скачавшихНе забываем говорить

[Цитировать]



Показать сообщения:    

Текущее время: 09-Дек 14:42

Часовой пояс: UTC + 3


Вы не можете начинать темы
Вы не можете отвечать на сообщения
Вы не можете редактировать свои сообщения
Вы не можете удалять свои сообщения
Вы не можете голосовать в опросах
Вы не можете прикреплять файлы к сообщениям
Вы не можете скачивать файлы

!ВНИМАНИЕ!
Сайт не предоставляет электронные версии произведений, а занимается лишь коллекционированием и каталогизацией ссылок, присылаемых и публикуемых на форуме нашими читателями. Если вы являетесь правообладателем какого-либо представленного материала и не желаете, чтобы ссылка на него находилась в нашем каталоге, свяжитесь с нами, и мы незамедлительно удалим ее. Файлы для обмена на трекере предоставлены пользователями сайта, и администрация не несет ответственности за их содержание. Просьба не заливать файлы, защищенные авторскими правами, а также файлы нелегального содержания!