[ Сегодня идет свободное скачивание без начисления Download ]


Статистика раздачи
Нет
 
   
 
Top  
 
 
-Всё путем / Everything Must Go (2010) BDRemux- Русское название: Всё путем
Оригинальное название: Everything Must Go
Страна: США
Студия: Temple Hill Entertainment, Cowtown Cinema Ventures
Год выпуска: 2010
Жанр: Комедия, Драма-Описание фильма:
Это история потерявшего работу человека, выставленного из дома собственной женой. Вместе с лузером на лужайке оказывается и все его имущество, которое он пытается распродать за четыре дня.-Режиссер: Дэн Раш / Dan Rush
Актеры: Уилл Феррелл, Ребекка Холл, Майкл Пенья, Розали Майклс, Стивен Рут, Лора Дерн, Гленн Хоуертон, Тодд Брайант-Продолжительность: 01:37:06
Перевод: Профессиональный (многоголосый закадровый) НТВ + Одноголосый закадровый (keeper_ukr)
Оригинальная аудиодорожка: английский
Cубтитры: русские, английские
Формат субтитров: softsub (SRT)- -Видеокодек: MPEG-4 AVC/H.264
Битрейт видео: ~19999 kbps
Размер кадра: 1920x1080p
Качество видео: BDRemux 1080p-Аудио 1: Русский AC3 / 2.0 / 48 kHz / 192 kbps / 16 bits | НТВ+
Аудио 2: Русский AC3 / 5.1 / 48 kHz / 448 kbps / 16 bits | Одноголосый
Аудио 3: Английский DTS-HD Master Audio / 5.1 / 48 kHz / 3346 kbps / 24 bits (DTS Core: 5.1 / 48 kHz / 1510 kbps / 24 bits)
-

Знаете ли вы, что...

Фильм основан на рассказе «Почему ты не танцуешь?» (Why Don`t You Dance?) Рэймонда Карвера, американского писателя и поэта. Режиссер Дэн Раш предварительно попросил разрешения у вдовы Карвера, Тесс Галлахер, прежде чем расширить историю и добавить туда дополнительных персонажей.
Имя реквизитора Кита Моски несколько раз появляется в ежегоднике, который просматривает Ник, когда он находит записку от Далилы. Также некоторые другие фотографии и имена используются в ежегоднике по несколько раз.
Полотенце на спинке стула за Уиллом Ферреллом соскальзывает вниз, а затем оказывается снова на спинке во время его разговора с Ребеккой Холл о ее муже.
После того как Саманта предлагает Нику валиум от его симптома отмены, желтый каяк (который, как мы видели, Ник перетащил на дальнюю сторону двора в одной из предыдущих сцен) появляется позади нее в непосредственной близости от импровизированной гостиной. Каяк был перенесен туда, чтобы позже было выявлено, что там Саманта спрятала его пиво. Затем утром, когда у него проходит состояние оцепенения, каяк снова на том месте, где Ник первоначально оставил его.
Сидящий неподвижно оператор с камерой отражается в стеклянной двери душа в ванной комнате Ника (левая нижняя часть кадра). Сцена происходит ближе к концу фильма, после того как Ник достает ключи от новых замков и снова получает доступ к своему дому.
Песня «I Shall Be Released» группы The Band никогда не была первой дорожкой на любой из сторон альбома, в отличии от того, как это показано в фильме. Это был последний трек с их альбома Music from Big Pink 1968 года.
-

MediaInfo:

General
Complete name : O:\Все путем.Blu-Ray.Remux.(1080p).mkv
Format : Matroska
File size : 16.3 GiB
Duration : 1h 37mn
Overall bit rate : 24.0 Mbps
Encoded date : UTC 2012-08-06 18:40:28
Writing application : mkvmerge v5.7.0 ('The Whirlwind') built on Jul 8 2012 20:08:51
Writing library : libebml v1.2.3 + libmatroska v1.3.0
Video
ID : 1
Format : AVC
Format/Info : Advanced Video Codec
Format profile : High@L4.1
Format settings, CABAC : Yes
Format settings, ReFrames : 4 frames
Muxing mode : Container profile=Unknown@4.1
Codec ID : V_MPEG4/ISO/AVC
Duration : 1h 37mn
Width : 1 920 pixels
Height : 1 080 pixels
Display aspect ratio : 16:9
Frame rate : 23.976 fps
Resolution : 8 bits
Colorimetry : 4:2:0
Scan type : Progressive
Color primaries : BT.709-5, BT.1361, IEC 61966-2-4, SMPTE RP177
Transfer characteristics : BT.709-5, BT.1361
Matrix coefficients : BT.709-5, BT.1361, IEC 61966-2-4 709, SMPTE RP177
Audio #1
ID : 2
Format : AC-3
Format/Info : Audio Coding 3
Codec ID : A_AC3
Duration : 1h 37mn
Bit rate mode : Constant
Bit rate : 192 Kbps
Channel(s) : 2 channels
Channel positions : L R
Sampling rate : 48.0 KHz
Stream size : 133 MiB (1%)
Title : НТВ+
Language : Russian
Audio #2
ID : 3
Format : AC-3
Format/Info : Audio Coding 3
Codec ID : A_AC3
Duration : 1h 37mn
Bit rate mode : Constant
Bit rate : 448 Kbps
Channel(s) : 6 channels
Channel positions : Front: L C R, Surround: L R, LFE
Sampling rate : 48.0 KHz
Stream size : 311 MiB (2%)
Title : keeper_ukr
Language : Russian
Audio #3
ID : 4
Format : DTS
Format/Info : Digital Theater Systems
Format profile : MA
Codec ID : A_DTS
Duration : 1h 37mn
Bit rate mode : Variable
Channel(s) : 6 channels
Channel positions : Front: L C R, Surround: L R, LFE
Sampling rate : 48.0 KHz
Resolution : 24 bits
Text #1
ID : 5
Format : UTF-8
Codec ID : S_TEXT/UTF8
Codec ID/Info : UTF-8 Plain Text
Title : el_brujo
Language : Russian
Text #2
ID : 6
Format : UTF-8
Codec ID : S_TEXT/UTF8
Codec ID/Info : UTF-8 Plain Text
Menu
00:00:00.000 : en:00:00:00.000
00:05:16.608 : en:00:05:16.608
00:10:37.720 : en:00:10:37.720
00:16:09.719 : en:00:16:09.719
00:22:37.773 : en:00:22:37.773
00:28:39.843 : en:00:28:39.843
00:34:50.672 : en:00:34:50.672
00:43:06.959 : en:00:43:06.959
00:50:24.188 : en:00:50:24.188
01:00:29.209 : en:01:00:29.209
01:07:12.070 : en:01:07:12.070
01:14:41.227 : en:01:14:41.227
01:20:14.852 : en:01:20:14.852
01:23:11.069 : en:01:23:11.069
01:28:25.759 : en:01:28:25.759
01:33:39.614 : en:01:33:39.614
-Скриншоты:
Время раздачи: 24/7 - круглосуточно

[Цитировать]



Показать сообщения:    

Текущее время: 10-Дек 09:57

Часовой пояс: UTC + 3


Вы не можете начинать темы
Вы не можете отвечать на сообщения
Вы не можете редактировать свои сообщения
Вы не можете удалять свои сообщения
Вы не можете голосовать в опросах
Вы не можете прикреплять файлы к сообщениям
Вы не можете скачивать файлы

!ВНИМАНИЕ!
Сайт не предоставляет электронные версии произведений, а занимается лишь коллекционированием и каталогизацией ссылок, присылаемых и публикуемых на форуме нашими читателями. Если вы являетесь правообладателем какого-либо представленного материала и не желаете, чтобы ссылка на него находилась в нашем каталоге, свяжитесь с нами, и мы незамедлительно удалим ее. Файлы для обмена на трекере предоставлены пользователями сайта, и администрация не несет ответственности за их содержание. Просьба не заливать файлы, защищенные авторскими правами, а также файлы нелегального содержания!