[ Сегодня идет свободное скачивание без начисления Download ]


Статистика раздачи
Нет
 
   
 
Top  
 
 
-Резня в долине динозавров / Nudo e selvaggio (1985) DVDRip- Русское название: Резня в долине динозавров
Оригинальное название: Nudo e selvaggio
Выпущено: Бразилия, Италия
Год выпуска: 1985
Жанр: Боевик, Приключения, Ужасы
Описание фильма:
Небольшой самолет терпит крушение в дебрях Амазонки. Часть пассажиров погибла, живые решают
выбираться сами, потому что помощи ждать бесполезно. И совсем скоро они позавидуют тем, кто
умер на месте катастрофы, сразу и без мук. Потому как, чем дальше в джунгли — тем кошмарнее
ожидающая их смерть: змеи, пираньи, крокодилы и ужас из ужасов — племя каннибалов…
Режиссер: Мишель Массимо Тарантини
Актеры: Майкл Сопкив, Сюзан Карвальо, Милтон Родригез, Марта Андерсон, Жофре Суарес,
Глория Кристал, Сьюзэн Хан, Мария Реис, Энди Сайлэс, Леонидас Байер
Продолжительность: 01:24:25
Перевод: Многоголосый закадровый
Автор перевода: Cinema Prestige

Дата мировой премьеры: 13.08.1985
Дата выхода DVD релиза: 19.06.2008
Видеокодек: Xvid
Битрейт видео: ~2115 Кбит/с
Размер кадра: 704x384
Качество видео: DVDRip
Аудиокодек: AC3,2ch
Битрейт аудио: ~192.00 kbps

MI:

Общее
Полное имя : D:\Archyv\Films\Reznja 1985.avi
Формат : AVI
Формат/Информация : Audio Video Interleave
Размер файла : 1,37 Гбайт
Продолжительность : 1 ч. 24 м.
Общий поток : 2318 Кбит/сек
Программа кодирования : VirtualDubMod 1.5.10.3 | www.virtualdub-fr.org || (build 2550/release)
Библиотека кодирования : VirtualDubMod build 2550/release
Видео
Идентификатор : 0
Формат : MPEG-4 Visual
Профиль формата : Advanced [email protected]
Параметр BVOP формата : 2
Параметр QPel формата : Нет
Параметр GMC формата : Без точки перехода
Параметр матрицы формата : Default (H.263)
Идентификатор кодека : XVID
Идентификатор кодека/Подсказка : XviD
Продолжительность : 1 ч. 24 м.
Битрейт : 2116 Кбит/сек
Ширина : 704 пикселя
Высота : 384 пикселя
Соотношение сторон : 1,85:1
Частота кадров : 25,000 кадров/сек
Цветовое пространство : YUV
Субдискретизация насыщенности : 4:2:0
Битовая глубина : 8 бит
Тип развёртки : Прогрессивная
Метод сжатия : С потерями
Бит/(Пиксели*Кадры) : 0.313
Размер потока : 1,25 Гбайт (91%)
Библиотека кодирования : XviD 64
Аудио
Идентификатор : 1
Формат : AC-3
Формат/Информация : Audio Coding 3
Расширение режима : CM (complete main)
Параметр Endianness формата : Big
Идентификатор кодека : 2000
Продолжительность : 1 ч. 24 м.
Вид битрейта : Постоянный
Битрейт : 192 Кбит/сек
Каналы : 2 канала
Расположение каналов : Front: L R
Частота : 48,0 КГц
Битовая глубина : 16 бит
Метод сжатия : С потерями
Размер потока : 116 Мбайт (8%)
Выравнивание : Разделение по промежуткам
Продолжительность промежутка : 40 мс. (1,00 видеокадр)
Время предзагрузки промежутка : 500 мс.
Скриншоты:


Время раздачи: с 6:00 до 22:00 (GMT +2)

[Цитировать]



Показать сообщения:    

Текущее время: 04-Дек 04:55

Часовой пояс: UTC + 3


Вы не можете начинать темы
Вы не можете отвечать на сообщения
Вы не можете редактировать свои сообщения
Вы не можете удалять свои сообщения
Вы не можете голосовать в опросах
Вы не можете прикреплять файлы к сообщениям
Вы не можете скачивать файлы

!ВНИМАНИЕ!
Сайт не предоставляет электронные версии произведений, а занимается лишь коллекционированием и каталогизацией ссылок, присылаемых и публикуемых на форуме нашими читателями. Если вы являетесь правообладателем какого-либо представленного материала и не желаете, чтобы ссылка на него находилась в нашем каталоге, свяжитесь с нами, и мы незамедлительно удалим ее. Файлы для обмена на трекере предоставлены пользователями сайта, и администрация не несет ответственности за их содержание. Просьба не заливать файлы, защищенные авторскими правами, а также файлы нелегального содержания!