[ Сегодня идет свободное скачивание без начисления Download ]


Статистика раздачи
Нет
 
   
 
Top  
 
 
[sh]Полное разоблачение / Full Disclosure[/sh] -Страна: Канада
Жанр: Триллер
Год выпуска: 2001
Продолжительность: 01:37:00-Перевод: Профессиональный двухголосый закадровый (ЕкатеринбургАрт)
Cубтитры: нет
Оригинальная аудиодорожка: английская-Режиссер: Джон Брэдшоу / John Bradshaw
В ролях: Вирджиния Мэдсен, Пенелопа Энн Миллер, Рейчел Тикотин, Кристофер Пламмер, Фред Уорд, Ким Коутс, Роберта Максвелл, Николас Кэмпбелл, Хрант Альянак, Тайрон Бенскин.-Описание: Из-за увлечения спиртным блестящая карьера журналиста Джона Макуиртера практически полностью рухнула. Чтобы восстановить былую репутацию, ему нужна настоящая сенсация. И она не заставляет себя ждать, вот только вполне может стоить ему жизни. Старые товарищи Джона по радикальной студенческой группировке, в которой он состоял много лет назад, требуют вернуть им долг.
Джон должен помочь очаровательной перуанской революционерке, которая на самом деле работает на палестинских террористов и получила задание убить влиятельного медиа-магната. Но на их след уже вышли агенты ФБР.
Готов ли Джон рискнуть свободой и жизнью ради женщины, которую успел полюбить? И выполнит ли она приказ убрать его как свидетеля, который знает слишком много?- - -Качество видео: DVDRip
Формат видео: AVI-Видео: 640x480 (1.33:1), 29.970 fps, XviD MPEG-4 ~1297 kbps avg, 0.14 bit/pixel
Аудио 1: 44.100 kHz, MPEG Layer 3, 2 ch, ~128.00 kbps avg - русский
Аудио 2: 44.100 kHz, MPEG Layer 3, 2 ch, ~96.00 kbps avg - английский
-

MediaInfo

General
Complete name : D:\Public\Full Disclosure (2001) rus+eng.avi
Format : AVI
Format/Info : Audio Video Interleave
File size : 1.04 GiB
Duration : 1h 37mn
Overall bit rate : 1 540 Kbps
Writing application : VirtualDubMod 1.5.10.2 (build 2542/release)
Writing library : VirtualDubMod build 2542/release
Video
ID : 0
Format : MPEG-4 Visual
Format profile : Advanced Simple@L5
Format settings, BVOP : 2
Format settings, QPel : No
Format settings, GMC : No warppoints
Format settings, Matrix : Default (H.263)
Muxing mode : Packed bitstream
Codec ID : XVID
Codec ID/Hint : XviD
Duration : 1h 37mn
Bit rate : 1 298 Kbps
Width : 640 pixels
Height : 480 pixels
Display aspect ratio : 4:3
Frame rate : 29.970 fps
Color space : YUV
Chroma subsampling : 4:2:0
Bit depth : 8 bits
Scan type : Progressive
Compression mode : Lossy
Bits/(Pixel*Frame) : 0.141
Stream size : 901 MiB (84%)
Writing library : XviD 1.2.1 (UTC 2008-12-04)
Audio #1
ID : 1
Format : MPEG Audio
Format version : Version 1
Format profile : Layer 3
Mode : Joint stereo
Mode extension : MS Stereo
Codec ID : 55
Codec ID/Hint : MP3
Duration : 1h 36mn
Bit rate mode : Constant
Bit rate : 128 Kbps
Channel(s) : 2 channels
Sampling rate : 44.1 KHz
Compression mode : Lossy
Stream size : 88.8 MiB (8%)
Alignment : Split accross interleaves
Interleave, duration : 33 ms (1.00 video frame)
Interleave, preload duration : 500 ms
Audio #2
ID : 2
Format : MPEG Audio
Format version : Version 1
Format profile : Layer 3
Codec ID : 55
Codec ID/Hint : MP3
Duration : 1h 37mn
Bit rate mode : Constant
Bit rate : 96.0 Kbps
Channel(s) : 2 channels
Sampling rate : 44.1 KHz
Compression mode : Lossy
Delay relative to video : 26ms
Stream size : 66.6 MiB (6%)
Alignment : Split accross interleaves
Interleave, duration : 33 ms (1.00 video frame)
Interleave, preload duration : 500 ms

Скриншот c названием фильма

Скриншоты

[Цитировать]



Показать сообщения:    

Текущее время: 10-Дек 23:31

Часовой пояс: UTC + 3


Вы не можете начинать темы
Вы не можете отвечать на сообщения
Вы не можете редактировать свои сообщения
Вы не можете удалять свои сообщения
Вы не можете голосовать в опросах
Вы не можете прикреплять файлы к сообщениям
Вы не можете скачивать файлы

!ВНИМАНИЕ!
Сайт не предоставляет электронные версии произведений, а занимается лишь коллекционированием и каталогизацией ссылок, присылаемых и публикуемых на форуме нашими читателями. Если вы являетесь правообладателем какого-либо представленного материала и не желаете, чтобы ссылка на него находилась в нашем каталоге, свяжитесь с нами, и мы незамедлительно удалим ее. Файлы для обмена на трекере предоставлены пользователями сайта, и администрация не несет ответственности за их содержание. Просьба не заливать файлы, защищенные авторскими правами, а также файлы нелегального содержания!