[ Сегодня идет свободное скачивание без начисления Download ]


Статистика раздачи
Нет
 
   
 
Top  
 
 
-Красный рассвет / Red Dawn (1984) BDRemux- Русское название: Красный рассвет
Оригинальное название: Red Dawn
Год выпуска: 1984
Жанр: Боевик, Триллер, Драма, Приключения
Описание фильма:
Мирным утром из окна классной комнаты школьники вдруг видят, как на привычную футбольную площадку приземляется целая армия парашютистов. Началось военное вторжение на территорию США! Когда в их город врываются иностранные войска, восемь подростков убегают в горы. Назвав свой отряд именем школьной футбольной команды, «Росомахи», они начинают настоящую партизанскую войну, чтобы защитить своих родителей, своих друзей, свою страну.
Режиссер: Джон Милиус
Актеры: Патрик Суэйзи, С. Томас Хауэлл, Лиа Томпсон, Чарли Шин, Даррен Далтон, Дженнифер Грей, Брэд Сэвадж, Даг Тоби, Бен Джонсон, Гарри Дин Стэнтон
Продолжительность: 01:54:00
Перевод: Дублированный, Двухголосый закадровый, Одноголосый закадровый
Язык субтитров: Русский, Английский
-ВИДЕО:
Видеокодек: MPEG-4 AVC/H.264
Битрейт видео: ~32574 kbps
Размер кадра: 1920 х 1080
Качество видео: BDRemux-ЗВУК:
Аудио 1: Русский, DTS 5.1, 755 kbps, 48 kHz (DUB BD EUR)
Аудио 2: Русский, AC3 2.0, 192 kbps, 48 kHz (DVO, Гланц и Королева)
Аудио 3: Русский, AC3 2.0, 192 kbps, 48 kHz (AVO, Ю.Живов)
Аудио 4: Английский, DTS-HD MA 5.1, 1578 kbps, 48 kHz (Оригинал)-Сэмпл: Ссылка-

BV

-

MediaInfo:

Общее
Уникальный идентификатор : 215317936525885398401714614613734159577 (0xA1FCB9E5170FD0C3BE6CCBEF285174D9)
Полное имя : D:\Films\Red_Dawn.1984.1080p.BDRemux.mkv
Формат : Matroska
Версия формата : Version 2
Размер файла : 28,1 Гбайт
Продолжительность : 1 ч. 54 м.
Режим общего битрейта : Переменный
Общий поток : 35,3 Мбит/сек
Название фильма : Red Dawn
Дата кодирования : UTC 2012-10-29 06:45:37
Программа кодирования : mkvmerge v5.2.0 ('I can't explain') built on Dec 18 2011 18:12:03
Библиотека кодирования : libebml v1.2.3 + libmatroska v1.3.0
Видео
Идентификатор : 1
Формат : AVC
Формат/Информация : Advanced Video Codec
Профиль формата : [email protected]
Параметр CABAC формата : Да
Параметр ReFrames формата : 4 кадра
Идентификатор кодека : V_MPEG4/ISO/AVC
Продолжительность : 1 ч. 54 м.
Вид битрейта : Переменный
Битрейт : 32,7 Мбит/сек
Максимальный битрейт : 38,0 Мбит/сек
Ширина : 1920 пикселей
Высота : 1080 пикселей
Соотношение сторон : 16:9
Частота кадров : 23,976 кадра/сек
Цветовое пространство : YUV
Субдискретизация насыщенности : 4:2:0
Битовая глубина : 8 бит
Тип развёртки : Прогрессивная
Бит/(Пиксели*Кадры) : 0.657
Размер потока : 26,0 Гбайт (93%)
Язык : English
Default : Да
Forced : Нет
Аудио #1
Идентификатор : 2
Формат : DTS
Формат/Информация : Digital Theater Systems
Идентификатор кодека : A_DTS
Продолжительность : 1 ч. 54 м.
Вид битрейта : Постоянный
Битрейт : 755 Кбит/сек
Каналы : 6 каналов
Расположение каналов : Front: L C R, Side: L R, LFE
Частота : 48,0 КГц
Битовая глубина : 24 бит
Метод сжатия : С потерями
Размер потока : 615 Мбайт (2%)
Заголовок : DUB BD EUR
Язык : Russian
Default : Да
Forced : Нет
Аудио #2
Идентификатор : 3
Формат : AC-3
Формат/Информация : Audio Coding 3
Расширение режима : CM (complete main)
Параметр Endianness формата : Big
Идентификатор кодека : A_AC3
Продолжительность : 1 ч. 54 м.
Вид битрейта : Постоянный
Битрейт : 192 Кбит/сек
Каналы : 2 канала
Расположение каналов : Front: L R
Частота : 48,0 КГц
Битовая глубина : 16 бит
Метод сжатия : С потерями
Размер потока : 157 Мбайт (1%)
Заголовок : DVO Glanz & Koroleva
Язык : Russian
Default : Нет
Forced : Нет
Аудио #3
Идентификатор : 4
Формат : AC-3
Формат/Информация : Audio Coding 3
Расширение режима : CM (complete main)
Параметр Endianness формата : Big
Идентификатор кодека : A_AC3
Продолжительность : 1 ч. 54 м.
Вид битрейта : Постоянный
Битрейт : 192 Кбит/сек
Каналы : 2 канала
Расположение каналов : Front: L R
Частота : 48,0 КГц
Битовая глубина : 16 бит
Метод сжатия : С потерями
Размер потока : 157 Мбайт (1%)
Заголовок : AVO Y.Zhivov
Язык : Russian
Default : Нет
Forced : Нет
Аудио #4
Идентификатор : 5
Формат : DTS
Формат/Информация : Digital Theater Systems
Профиль формата : MA / Core
Идентификатор кодека : A_DTS
Продолжительность : 1 ч. 54 м.
Вид битрейта : Переменный
Битрейт : 806 Кбит/сек / 755 Кбит/сек
Каналы : 6 каналов
Расположение каналов : Front: L C R, Side: L R, LFE
Частота : 48,0 КГц
Битовая глубина : 24 бит
Метод сжатия : Без потерь / Lossy
Заголовок : Lossless
Язык : English
Default : Нет
Forced : Нет
Текст #1
Идентификатор : 6
Формат : UTF-8
Идентификатор кодека : S_TEXT/UTF8
Идентификатор кодека/Информация : UTF-8 Plain Text
Язык : Russian
Default : Нет
Forced : Нет
Текст #2
Идентификатор : 7
Формат : UTF-8
Идентификатор кодека : S_TEXT/UTF8
Идентификатор кодека/Информация : UTF-8 Plain Text
Язык : English
Default : Нет
Forced : Нет
Меню
00:00:00.000 : en:Chapter 00
00:02:48.459 : en:Chapter 01
00:07:49.760 : en:Chapter 02
00:11:39.824 : en:Chapter 03
00:13:31.393 : en:Chapter 04
00:17:39.058 : en:Chapter 05
00:20:34.524 : en:Chapter 06
00:23:56.518 : en:Chapter 07
00:28:32.085 : en:Chapter 08
00:32:57.684 : en:Chapter 09
00:34:00.538 : en:Chapter 10
00:36:42.033 : en:Chapter 11
00:39:06.844 : en:Chapter 12
00:42:55.114 : en:Chapter 13
00:46:38.670 : en:Chapter 14
00:49:53.573 : en:Chapter 15
00:52:06.873 : en:Chapter 16
00:58:17.243 : en:Chapter 17
01:02:32.457 : en:Chapter 18
01:07:57.573 : en:Chapter 19
01:13:42.418 : en:Chapter 20
01:16:16.113 : en:Chapter 21
01:19:23.383 : en:Chapter 22
01:21:56.620 : en:Chapter 23
01:27:29.410 : en:Chapter 24
01:33:23.472 : en:Chapter 25
01:35:08.285 : en:Chapter 26
01:40:08.961 : en:Chapter 27
01:42:31.186 : en:Chapter 28
01:47:32.904 : en:Chapter 29
01:49:28.895 : en:Chapter 30
-Скриншоты:
-Время раздачи: С 8:00 до 22:00 до 5 скачавших

[Цитировать]



Показать сообщения:    

Текущее время: 04-Дек 02:51

Часовой пояс: UTC + 3


Вы не можете начинать темы
Вы не можете отвечать на сообщения
Вы не можете редактировать свои сообщения
Вы не можете удалять свои сообщения
Вы не можете голосовать в опросах
Вы не можете прикреплять файлы к сообщениям
Вы не можете скачивать файлы

!ВНИМАНИЕ!
Сайт не предоставляет электронные версии произведений, а занимается лишь коллекционированием и каталогизацией ссылок, присылаемых и публикуемых на форуме нашими читателями. Если вы являетесь правообладателем какого-либо представленного материала и не желаете, чтобы ссылка на него находилась в нашем каталоге, свяжитесь с нами, и мы незамедлительно удалим ее. Файлы для обмена на трекере предоставлены пользователями сайта, и администрация не несет ответственности за их содержание. Просьба не заливать файлы, защищенные авторскими правами, а также файлы нелегального содержания!