[ Сегодня идет свободное скачивание без начисления Download ]


Статистика раздачи
Нет
 
   
 
Top  
 
 
-Трон: Наследие / TRON: Legacy (2010) BDRip- Русское название: Трон: Наследие
Оригинальное название: TRON: Legacy
Год выпуска: 2010
Жанр: Фантастика, Приключения, Триллер
Страна: США, Walt Disney Pictures
Дата мировой премьеры: 30 ноября 2010
Дата российской премьеры: 23 декабря 2010, «WDSSPR»
Дата выхода на Blu-Ray: 26 апреля 2011, «Уолт Дисней Компани СНГ»
Бюджет: $170 000 000
Cборы в США: $171 449 637
Сборы в мире: + $224 900 000 = $396 349 637
Описание фильма:
Сэм Флинн, технически одарённый 27-летний сын Кевина Флинна, начинает расследовать исчезновение своего отца и оказывается втянутым в тот же мир жестоких программ и гладиаторских игр, в котором его отец жил на протяжении 25 лет. Вместе с помощницей Кевина, отец и сын пускаются в рискованное путешествие за жизнью по поражающей взгляд кибер-вселенной, которая стала ещё более совершенной и чрезвычайно опасной.
Режиссер: Джозеф Косински
Актеры: Джефф Бриджес, Гаррет Хедлунд, Оливия Уайлд, Брюс Бокслейтнер, Джеймс Фрейн, Бо Гарретт, Майкл Шин, Серинда Свон, Йайа ДаКоста, Элизабет Мэтис
Продолжительность: 02:05:08
Перевод: Дублированный

Формат: MKV
Видеокодек: MPEG-4 AVC/H.264
Битрейт видео: ~16,4 Мбит/сек
Размер кадра: 1920x1080
Качество видео: BDRip
Аудиокодек: AC3 / DTS
Битрейт аудио: Русский / Украинский (AC3, 6 ch, 640 Кбит/с) / Английский (DTS-HD MA, 8 ch, 1510 Кбит/с)
Cубтитры: 1: Русские (только надписи и пр.), 2: Русские (полные), 3: Украинские (только надписи и пр.), 4: Украинские (полные), 5: Английские
Чаптеры: 20 шт.
В целях воспроизведения фильма в оригинальном формате IMAX, соотношение сторон кадра будет варьироваться между 2.35:1 и 1.78:1.
Чёрные полосы на вашем экране будут меняться в соответствии с изображением.

МедиаИнфо

Общее
Уникальный идентификатор : 179152423659427176027490771819607031201 (0x86C780719BB47FD4BBB7A0AEDDFEFDA1)
Полное имя : Tron Legacy 2010.mkv
Формат : Matroska
Размер файла : 18,3 Гбайт
Продолжительность : 2 ч. 5 м.
Общий поток : 21,0 Мбит/сек
Название фильма : Tron Legacy 2010.LeHiH
Дата кодирования : UTC 2011-03-14 09:08:20
Программа кодирования : mkvmerge v4.0.0 ('The Stars were mine') сборка от Jun 6 2010 16:18:42
Библиотека кодирования : libebml v1.0.0 + libmatroska v1.0.0
Видео
Идентификатор : 1
Формат : AVC
Формат/Информация : Advanced Video Codec
Профиль формата : [email protected]
Параметр CABAC формата : Да
Параметр ReFrames формата : 4 кадры
Идентификатор кодека : V_MPEG4/ISO/AVC
Продолжительность : 2 ч. 5 м.
Битрейт : 16,4 Мбит/сек
Ширина : 1920 пикс.
Высота : 1080 пикс.
Соотношение сторон : 16:9
Частота кадров : 23,976 кадр/сек
Цветовое пространство : YUV
Подвыборка цветности : 4:2:0
Битовая глубина : 8 бит
Тип развёртки : Прогрессивная
Бит/(Пиксели*Кадры) : 0.330
Размер потока : 14,7 Гбайт (80%)
Заголовок : Tron Legacy 2010.
Библиотека кодирования : x264 core 112 r1867 22bfd31
Настройки программы : cabac=1 / ref=3 / deblock=1:-3:-3 / analyse=0x3:0x113 / me=hex / subme=7 / psy=1 / psy_rd=1.00:0.00 / mixed_ref=1 / me_range=16 / chroma_me=1 / trellis=1 / 8x8dct=1 / cqm=0 / deadzone=21,11 / fast_pskip=1 / chroma_qp_offset=-2 / threads=3 / sliced_threads=0 / nr=0 / decimate=1 / interlaced=0 / constrained_intra=0 / bframes=3 / b_pyramid=2 / b_adapt=1 / b_bias=0 / direct=1 / weightb=1 / open_gop=0 / weightp=2 / keyint=250 / keyint_min=23 / scenecut=40 / intra_refresh=0 / rc_lookahead=40 / rc=2pass / mbtree=1 / bitrate=16400 / ratetol=1.0 / qcomp=0.60 / qpmin=10 / qpmax=51 / qpstep=4 / cplxblur=20.0 / qblur=0.5 / ip_ratio=1.40 / aq=1:1.00
Язык : English
Аудио #1
Идентификатор : 2
Формат : AC-3
Формат/Информация : Audio Coding 3
Расширение режима : CM (complete main)
Идентификатор кодека : A_AC3
Продолжительность : 2 ч. 5 м.
Вид битрейта : Постоянный
Битрейт : 640 Кбит/сек
Канал(ы) : 6 канала(ов)
Расположение каналов : Front: L C R, Side: L R, LFE
Частота : 48,0 КГц
Битовая глубина : 16 бит
Метод сжатия : С потерями
Размер потока : 573 Мбайт (3%)
Заголовок : [email protected] Kbps_Дубляж
Язык : Russian
Аудио #2
Идентификатор : 3
Формат : AC-3
Формат/Информация : Audio Coding 3
Расширение режима : CM (complete main)
Идентификатор кодека : A_AC3
Продолжительность : 2 ч. 5 м.
Вид битрейта : Постоянный
Битрейт : 640 Кбит/сек
Канал(ы) : 6 канала(ов)
Расположение каналов : Front: L C R, Side: L R, LFE
Частота : 48,0 КГц
Битовая глубина : 16 бит
Метод сжатия : С потерями
Размер потока : 573 Мбайт (3%)
Заголовок : [email protected] Kbps_Дубляж
Язык : Ukrainian
Аудио #3
Идентификатор : 4
Формат : DTS
Формат/Информация : Digital Theater Systems
Профиль формата : MA / Core
Идентификатор кодека : A_DTS
Продолжительность : 2 ч. 5 м.
Вид битрейта : Переменный
Битрейт : 2506 Кбит/сек / 1510 Кбит/сек
Канал(ы) : 8 канала(ов) / 6 канала(ов)
Расположение каналов : Front: L C R, Side: L R, Back: L R, LFE / Front: L C R, Side: L R, LFE
Частота : 48,0 КГц
Битовая глубина : 16 бит
Метод сжатия : Без потерь / Lossy
Заголовок : DTS
Язык : English
Текст #1
Идентификатор : 5
Формат : UTF-8
Идентификатор кодека : S_TEXT/UTF8
Идентификатор кодека/Информация : UTF-8 Plain Text
Заголовок : RUS.FORCED.srt
Язык : Russian
Текст #2
Идентификатор : 6
Формат : UTF-8
Идентификатор кодека : S_TEXT/UTF8
Идентификатор кодека/Информация : UTF-8 Plain Text
Язык : Russian
Текст #3
Идентификатор : 7
Формат : UTF-8
Идентификатор кодека : S_TEXT/UTF8
Идентификатор кодека/Информация : UTF-8 Plain Text
Заголовок : UKR.FORCED.srt
Язык : Ukrainian
Текст #4
Идентификатор : 8
Формат : UTF-8
Идентификатор кодека : S_TEXT/UTF8
Идентификатор кодека/Информация : UTF-8 Plain Text
Язык : Ukrainian
Текст #5
Идентификатор : 9
Формат : UTF-8
Идентификатор кодека : S_TEXT/UTF8
Идентификатор кодека/Информация : UTF-8 Plain Text
Язык : English
Меню
00:00:00.000 : :Chapter 01
00:04:07.163 : :Chapter 02
00:14:44.133 : :Chapter 03
00:23:15.602 : :Chapter 04
00:26:52.694 : :Chapter 05
00:36:12.211 : :Chapter 06
00:38:35.980 : :Chapter 07
00:46:52.726 : :Chapter 08
00:53:03.763 : :Chapter 09
01:04:54.181 : :Chapter 10
01:13:47.423 : :Chapter 11
01:19:00.944 : :Chapter 12
01:22:40.455 : :Chapter 13
01:25:50.895 : :Chapter 14
01:28:11.828 : :Chapter 15
01:31:42.413 : :Chapter 16
01:43:13.061 : :Chapter 17
01:48:18.033 : :Chapter 18
01:54:48.381 : :Chapter 19
01:58:03.659 : :Chapter 20
02:05:08.417 : :Chapter 21
Скриншоты:


Время раздачи: С 23:00 до 8:30

[Цитировать]



Показать сообщения:    

Текущее время: 06-Дек 06:01

Часовой пояс: UTC + 3


Вы не можете начинать темы
Вы не можете отвечать на сообщения
Вы не можете редактировать свои сообщения
Вы не можете удалять свои сообщения
Вы не можете голосовать в опросах
Вы не можете прикреплять файлы к сообщениям
Вы не можете скачивать файлы

!ВНИМАНИЕ!
Сайт не предоставляет электронные версии произведений, а занимается лишь коллекционированием и каталогизацией ссылок, присылаемых и публикуемых на форуме нашими читателями. Если вы являетесь правообладателем какого-либо представленного материала и не желаете, чтобы ссылка на него находилась в нашем каталоге, свяжитесь с нами, и мы незамедлительно удалим ее. Файлы для обмена на трекере предоставлены пользователями сайта, и администрация не несет ответственности за их содержание. Просьба не заливать файлы, защищенные авторскими правами, а также файлы нелегального содержания!