[ Сегодня идет свободное скачивание без начисления Download ]


Статистика раздачи
Нет
 
   
 
 
 
-Злой / The Wicked (2013) BDRip- Русское название: Злой
Оригинальное название: The Wicked
Год выпуска: 2013
Производство: США - A. C. I. Films
Жанр: Триллер, Боевик
Перевод: Двуголосый закадровый, любительский
Озвучка / Автор перевода: DeadSno & den904
Субтитры: Вшитые отключаемые
Язык субтитров: Английский, испанский, португальский
Режиссер: Питер Уинтер / Peter Winther
Актеры: Девон Веркхейзер, Николь Скотт, Джастин Дили, Кэйтлин Кармайкл, Джэми Калер, Кэсси Келлер, Чейз Мэйсер, Джесс Адамс, Диана Хоппер, Жаклин Гоци
Описание фильма:
Группа подростков хочет проверить легенду о бессмертной ведьме. Они считают, что это все выдумки и решают прийти к дому, в котором живет ведьма. Оказывается, что легенда не врала и ведьма на самом деле существует.- -Дата мировой премьеры: 30 апреля 2013
Продолжительность: 01:45:04
Качество видео: BDRip 1080p
Видеокодек: MPEG-4 AVC/H.264
Видео: H.264, 8369 Кбит/с, 1920x1080
Аудио #1: Русский: DTS, 5.1, 1536 Кбит/с - двуголосый закадровый
Аудио #2: Английский: DTS, 5.1, 1536 Кбит/с

Сохранены оригинальные чаптеры как на Blu-Ray

MediaInfo:

Общее
Уникальный идентификатор : 175441024476195364403868261153387454525 (0x83FCB656195E00B7A681C97544DA203D)
Полное имя : D:\Video\The.Wicked.2013.BDRip.1080p.dts.Rus.Eng.mkv
Формат : Matroska
Версия формата : Version 2
Размер файла : 8,75 Гбайт
Продолжительность : 1 ч. 45 м.
Общий поток : 11,9 Мбит/сек
Название фильма : The Wicked 2013
Дата кодирования : UTC 2013-03-26 11:10:08
Программа кодирования : mkvmerge v5.4.0 ('Piper') built on Mar 10 2012 13:34:39
Библиотека кодирования : libebml v1.2.3 + libmatroska v1.3.0
Видео
Идентификатор : 1
Формат : AVC
Формат/Информация : Advanced Video Codec
Профиль формата : [email protected]
Параметр CABAC формата : Да
Параметр ReFrames формата : 4 кадра
Идентификатор кодека : V_MPEG4/ISO/AVC
Продолжительность : 1 ч. 45 м.
Битрейт : 8912 Кбит/сек
Ширина : 1920 пикселей
Высота : 1080 пикселей
Соотношение сторон : 16:9
Частота кадров : 23,976 кадра/сек
Цветовое пространство : YUV
Субдискретизация насыщенности : 4:2:0
Битовая глубина : 8 бит
Тип развёртки : Прогрессивная
Бит/(Пиксели*Кадры) : 0.179
Размер потока : 6,36 Гбайт (73%)
Заголовок : The Wicked
Библиотека кодирования : x264 core 130 r2273 b3065e6
Настройки программы : cabac=1 / ref=4 / deblock=1:0:0 / analyse=0x3:0x133 / me=umh / subme=7 / psy=1 / psy_rd=1.00:0.00 / mixed_ref=1 / me_range=16 / chroma_me=1 / trellis=1 / 8x8dct=1 / cqm=0 / deadzone=21,11 / fast_pskip=0 / chroma_qp_offset=-2 / threads=12 / lookahead_threads=2 / sliced_threads=0 / nr=0 / decimate=1 / interlaced=0 / bluray_compat=0 / constrained_intra=0 / bframes=3 / b_pyramid=2 / b_adapt=2 / b_bias=0 / direct=3 / weightb=1 / open_gop=0 / weightp=2 / keyint=250 / keyint_min=23 / scenecut=40 / intra_refresh=0 / rc_lookahead=50 / rc=2pass / mbtree=1 / bitrate=8912 / ratetol=1.0 / qcomp=0.60 / qpmin=0 / qpmax=69 / qpstep=4 / cplxblur=20.0 / qblur=0.5 / ip_ratio=1.40 / aq=1:1.00
Язык : English
Default : Да
Forced : Нет
Аудио #1
Идентификатор : 2
Формат : DTS
Формат/Информация : Digital Theater Systems
Идентификатор кодека : A_DTS
Продолжительность : 1 ч. 45 м.
Вид битрейта : Постоянный
Битрейт : 1510 Кбит/сек
Каналы : 6 каналов
Расположение каналов : Front: L C R, Side: L R, LFE
Частота : 48,0 КГц
Битовая глубина : 24 бит
Метод сжатия : С потерями
Размер потока : 1,11 Гбайт (13%)
Заголовок : DTS 1536 Kbps @ DVO DeadSno & den904
Язык : Russian
Default : Да
Forced : Нет
Аудио #2
Идентификатор : 3
Формат : DTS
Формат/Информация : Digital Theater Systems
Идентификатор кодека : A_DTS
Продолжительность : 1 ч. 45 м.
Вид битрейта : Постоянный
Битрейт : 1510 Кбит/сек
Каналы : 6 каналов
Расположение каналов : Front: L C R, Side: L R, LFE
Частота : 48,0 КГц
Битовая глубина : 24 бит
Метод сжатия : С потерями
Размер потока : 1,11 Гбайт (13%)
Заголовок : DTS 1536 Kbps
Язык : English
Default : Нет
Forced : Нет
Текст #1
Идентификатор : 4
Формат : UTF-8
Идентификатор кодека : S_TEXT/UTF8
Идентификатор кодека/Информация : UTF-8 Plain Text
Заголовок : English
Язык : English
Default : Нет
Forced : Нет
Текст #2
Идентификатор : 5
Формат : UTF-8
Идентификатор кодека : S_TEXT/UTF8
Идентификатор кодека/Информация : UTF-8 Plain Text
Заголовок : Spanish
Язык : Spanish
Default : Нет
Forced : Нет
Текст #3
Идентификатор : 6
Формат : UTF-8
Идентификатор кодека : S_TEXT/UTF8
Идентификатор кодека/Информация : UTF-8 Plain Text
Заголовок : Portugese
Язык : Portuguese
Default : Нет
Forced : Нет
Меню
00:00:00.000 : en:00:00:00.000
00:09:54.969 : en:00:09:54.969
00:17:59.912 : en:00:17:59.912
00:29:27.933 : en:00:29:27.933
00:40:01.983 : en:00:40:01.983
00:47:34.935 : en:00:47:34.935
01:00:03.975 : en:01:00:03.975
01:08:10.920 : en:01:08:10.920
01:19:45.906 : en:01:19:45.906
01:29:26.903 : en:01:29:26.903
01:34:52.937 : en:01:34:52.937
01:38:15.890 : en:01:38:15.890
01:41:54.984 : en:01:41:54.984
Скриншоты:


Время раздачи: с 10:00 до 20:00 (GMT+2) - до 10 скачавшихНе забываем говорить

[Цитировать]



Показать сообщения:    

Текущее время: 04-Дек 23:19

Часовой пояс: UTC + 3


Вы не можете начинать темы
Вы не можете отвечать на сообщения
Вы не можете редактировать свои сообщения
Вы не можете удалять свои сообщения
Вы не можете голосовать в опросах
Вы не можете прикреплять файлы к сообщениям
Вы не можете скачивать файлы

!ВНИМАНИЕ!
Сайт не предоставляет электронные версии произведений, а занимается лишь коллекционированием и каталогизацией ссылок, присылаемых и публикуемых на форуме нашими читателями. Если вы являетесь правообладателем какого-либо представленного материала и не желаете, чтобы ссылка на него находилась в нашем каталоге, свяжитесь с нами, и мы незамедлительно удалим ее. Файлы для обмена на трекере предоставлены пользователями сайта, и администрация не несет ответственности за их содержание. Просьба не заливать файлы, защищенные авторскими правами, а также файлы нелегального содержания!