[ Сегодня идет свободное скачивание без начисления Download ]


Статистика раздачи
Нет
 
   
 
 
 
-Джанго освобожденный / Django Unchained (2012) BDRip-«Они забрали его свободу. Он заберёт у них всё.»- Русское название: Джанго освобожденный
Оригинальное название: Django Unchained
Год выпуска: 2012
Производство: США / Columbia Pictures, The Weinstein Company LLC
Жанр: Драма, Вестерн, Комедия, Приключения
Перевод: Авторский одноголосый, закадровый / Любительский одноголосый, закадровый
Субтитры: Вшитые отключаемые
Язык субтитров: Русский, Английский
Дата мировой премьеры: 25 декабря 2012
Дата российской премьеры: 17 января 2013, «WDSSPR»
Дата выхода DVD релиза: 2 мая 2013, «Columbia/Sony»
Режиссер: Квентин Тарантино
Актеры: Джейми Фокс, Кристоф Вальц, Леонардо ДиКаприо, Керри Вашингтон, Сэмюэл Л. Джексон, Уолтон Гоггинс, Деннис Кристофер, Джеймс Римар, Майкл Паркс, Дон Джонсон
Описание фильма:
Эксцентричный охотник за головами, также известный как «Дантист», промышляет отстрелом самых опасных преступников на Диком Западе. Работенка пыльная, и без надежного помощника ему не обойтись. Но как найти такого и желательно не очень дорогого? Беглый раб по имени Джанго — прекрасная кандидатура. Правда, у нового помощника свои мотивы — кое с чем надо разобраться…

Продолжительность: 02:45:22
Качество видео: BDRip 720p-Видеокодек: MPEG-4 AVC/H.264
Битрейт видео: ~4166 Кбит/сек
Размер кадра: 1280 х 536
Аудиокодек: AC3 5.1 / DTS
Аудио 1: Русский, AC3 5.1, 448 kbps, 48 kHz (AVO, Дольский)
Аудио 2: Русский, AC3 5.1, 448 kbps, 48 kHz (VO, Лисиц)
Аудио 3: Русский, AC3 5.1, 448 kbps, 44.1 kHz (VO, Vano)
Аудио 4: Русский, AC3 5.1, 448 kbps, 48 kHz (VO, zamez)
Аудио 5: Английский, DTS 5.1, 1509 kbps, 48 kHz (Оригинал)-Сэмпл: Скачать-

MediaInfo:

Общее
Уникальный идентификатор : 172384472171510766149519053139612974799 (0x81B00AAC3654A0DAB3245870DC22BECF)
Полное имя : D:\Films\Django.Unchained.2012.720p.BDRip.mkv
Формат : Matroska
Версия формата : Version 2
Размер файла : 8,63 Гбайт
Продолжительность : 2 ч. 45 м.
Общий поток : 7469 Кбит/сек
Дата кодирования : UTC 2013-03-26 04:21:32
Программа кодирования : mkvmerge v5.2.0 ('I can't explain') built on Dec 18 2011 18:12:03
Библиотека кодирования : libebml v1.2.3 + libmatroska v1.3.0
Видео
Идентификатор : 1
Формат : AVC
Формат/Информация : Advanced Video Codec
Профиль формата : High@L4.1
Параметр CABAC формата : Да
Параметр ReFrames формата : 5 кадров
Идентификатор кодека : V_MPEG4/ISO/AVC
Продолжительность : 2 ч. 45 м.
Битрейт : 4166 Кбит/сек
Ширина : 1280 пикселей
Высота : 536 пикселей
Соотношение сторон : 2,40:1
Режим частоты кадров : Постоянный
Частота кадров : 23,976 кадра/сек
Цветовое пространство : YUV
Субдискретизация насыщенности : 4:2:0
Битовая глубина : 8 бит
Тип развёртки : Прогрессивная
Бит/(Пиксели*Кадры) : 0.253
Размер потока : 4,64 Гбайт (54%)
Библиотека кодирования : x264 core 130 r2273 b3065e6
Настройки программы : cabac=1 / ref=5 / deblock=1:0:0 / analyse=0x3:0x133 / me=umh / subme=7 / psy=1 / psy_rd=1.00:0.00 / mixed_ref=1 / me_range=16 / chroma_me=1 / trellis=1 / 8x8dct=1 / cqm=0 / deadzone=21,11 / fast_pskip=0 / chroma_qp_offset=-2 / threads=12 / lookahead_threads=2 / sliced_threads=0 / nr=0 / decimate=1 / interlaced=0 / bluray_compat=0 / constrained_intra=0 / bframes=3 / b_pyramid=2 / b_adapt=1 / b_bias=0 / direct=1 / weightb=1 / open_gop=0 / weightp=2 / keyint=250 / keyint_min=23 / scenecut=40 / intra_refresh=0 / rc_lookahead=40 / rc=2pass / mbtree=1 / bitrate=4166 / ratetol=1.0 / qcomp=0.60 / qpmin=0 / qpmax=69 / qpstep=4 / cplxblur=20.0 / qblur=0.5 / ip_ratio=1.40 / aq=1:1.00
Язык : English
Default : Да
Forced : Нет
Аудио #1
Идентификатор : 2
Формат : AC-3
Формат/Информация : Audio Coding 3
Расширение режима : CM (complete main)
Параметр Endianness формата : Big
Идентификатор кодека : A_AC3
Продолжительность : 2 ч. 45 м.
Вид битрейта : Постоянный
Битрейт : 448 Кбит/сек
Каналы : 6 каналов
Расположение каналов : Front: L C R, Side: L R, LFE
Частота : 48,0 КГц
Битовая глубина : 16 бит
Метод сжатия : С потерями
Размер потока : 530 Мбайт (6%)
Заголовок : Дольский
Язык : Russian
Default : Да
Forced : Нет
Аудио #2
Идентификатор : 3
Формат : AC-3
Формат/Информация : Audio Coding 3
Расширение режима : CM (complete main)
Параметр Endianness формата : Big
Идентификатор кодека : A_AC3
Продолжительность : 2 ч. 45 м.
Вид битрейта : Постоянный
Битрейт : 448 Кбит/сек
Каналы : 6 каналов
Расположение каналов : Front: L C R, Side: L R, LFE
Частота : 48,0 КГц
Битовая глубина : 16 бит
Метод сжатия : С потерями
Размер потока : 530 Мбайт (6%)
Заголовок : Лисиц
Язык : Russian
Default : Нет
Forced : Нет
Аудио #3
Идентификатор : 4
Формат : AC-3
Формат/Информация : Audio Coding 3
Расширение режима : CM (complete main)
Параметр Endianness формата : Big
Идентификатор кодека : A_AC3
Продолжительность : 2 ч. 45 м.
Вид битрейта : Постоянный
Битрейт : 448 Кбит/сек
Каналы : 6 каналов
Расположение каналов : Front: L C R, Side: L R, LFE
Частота : 44,1 КГц
Битовая глубина : 16 бит
Метод сжатия : С потерями
Размер потока : 530 Мбайт (6%)
Заголовок : VANO
Язык : Russian
Default : Нет
Forced : Нет
Аудио #4
Идентификатор : 5
Формат : AC-3
Формат/Информация : Audio Coding 3
Расширение режима : CM (complete main)
Параметр Endianness формата : Big
Идентификатор кодека : A_AC3
Продолжительность : 2 ч. 45 м.
Вид битрейта : Постоянный
Битрейт : 448 Кбит/сек
Каналы : 6 каналов
Расположение каналов : Front: L C R, Side: L R, LFE
Частота : 48,0 КГц
Битовая глубина : 16 бит
Метод сжатия : С потерями
Размер потока : 530 Мбайт (6%)
Заголовок : zamez
Язык : Russian
Default : Нет
Forced : Нет
Аудио #5
Идентификатор : 6
Формат : DTS
Формат/Информация : Digital Theater Systems
Режим : 16
Параметр Endianness формата : Big
Идентификатор кодека : A_DTS
Продолжительность : 2 ч. 45 м.
Вид битрейта : Постоянный
Битрейт : 1509 Кбит/сек
Каналы : 6 каналов
Расположение каналов : Front: L C R, Side: L R, LFE
Частота : 48,0 КГц
Битовая глубина : 24 бит
Метод сжатия : С потерями
Размер потока : 1,74 Гбайт (20%)
Язык : English
Default : Нет
Forced : Нет
Текст #1
Идентификатор : 7
Формат : UTF-8
Идентификатор кодека : S_TEXT/UTF8
Идентификатор кодека/Информация : UTF-8 Plain Text
Заголовок : Notabenoid
Язык : Russian
Default : Нет
Forced : Нет
Текст #2
Идентификатор : 8
Формат : UTF-8
Идентификатор кодека : S_TEXT/UTF8
Идентификатор кодека/Информация : UTF-8 Plain Text
Язык : English
Default : Нет
Forced : Нет
Меню
00:00:00.000 : en:00:00:00.000
00:03:36.466 : en:00:03:36.466
00:12:47.934 : en:00:12:47.934
00:18:49.420 : en:00:18:49.420
00:26:48.273 : en:00:26:48.273
00:31:44.528 : en:00:31:44.528
00:40:27.133 : en:00:40:27.133
00:46:05.513 : en:00:46:05.513
00:52:36.862 : en:00:52:36.862
00:58:12.823 : en:00:58:12.823
01:02:20.320 : en:01:02:20.320
01:12:13.496 : en:01:12:13.496
01:18:35.794 : en:01:18:35.794
01:26:08.038 : en:01:26:08.038
01:34:49.642 : en:01:34:49.642
01:40:52.380 : en:01:40:52.380
01:45:34.036 : en:01:45:34.036
01:50:01.094 : en:01:50:01.094
01:55:03.980 : en:01:55:03.980
02:03:54.969 : en:02:03:54.969
02:08:14.103 : en:02:08:14.103
02:14:14.380 : en:02:14:14.380
02:17:28.991 : en:02:17:28.991
02:22:32.544 : en:02:22:32.544
02:26:28.530 : en:02:26:28.530
02:33:00.463 : en:02:33:00.463
02:35:41.999 : en:02:35:41.999
02:41:30.931 : en:02:41:30.931
-Скриншоты:
-Время раздачи: С 8:00 до 22:00 до 5 скачавших

[Цитировать]



Показать сообщения:    

Текущее время: 09-Дек 10:49

Часовой пояс: UTC + 3


Вы не можете начинать темы
Вы не можете отвечать на сообщения
Вы не можете редактировать свои сообщения
Вы не можете удалять свои сообщения
Вы не можете голосовать в опросах
Вы не можете прикреплять файлы к сообщениям
Вы не можете скачивать файлы

!ВНИМАНИЕ!
Сайт не предоставляет электронные версии произведений, а занимается лишь коллекционированием и каталогизацией ссылок, присылаемых и публикуемых на форуме нашими читателями. Если вы являетесь правообладателем какого-либо представленного материала и не желаете, чтобы ссылка на него находилась в нашем каталоге, свяжитесь с нами, и мы незамедлительно удалим ее. Файлы для обмена на трекере предоставлены пользователями сайта, и администрация не несет ответственности за их содержание. Просьба не заливать файлы, защищенные авторскими правами, а также файлы нелегального содержания!