[ Сегодня идет свободное скачивание без начисления Download ]


Статистика раздачи
Нет
 
   
 
Top  
 
 
-Меня зовут Никто / My Name Is Nobody / Il Mio Nome ? Nessuno (1973) BDRip-«Nobody, but 'Nobody,' knows the trouble he's in!»
Русское название: Меня зовут Никто
Оригинальное название: My Name Is Nobody / Il Mio Nome ? Nessuno
Год выпуска: 1973
Страна: Франция, Италия, Германия (ФРГ)
Жанр: Вестерн, Комедия
Описание фильма:
Шериф Борегард, самый меткий и быстрый стрелок на Диком Западе, мечтал лишь об одном — уехать в Европу и зажить спокойной жизнью. «Папа, — как-то спросил мальчик у папы, — а может кто-нибудь стрелять быстрее, чем Джек Борегард?» «Никто», — ответил папа.
И однажды появился веселый молодой человек, который знал все о шерифе, не сводил с него восхищенных глаз и следовал за ним, как тень. «Кто ты», — спросил его Борегард. «Да так, НИКТО», — пожав плечами, ответил весельчак…
Режиссер: Тонино Валерии
Актеры: Теренс Хилл, Генри Фонда, Джин Мартин, Лео Гордон, Пьеро Лулли, Марио Брега
Продолжительность: 01:55:36
Перевод: Многоголосый закадровый
Язык субтитров: Русские, Итальянские
Вид субтитров: Вшитые

Дата мировой премьеры: 13 декабря 1973
Видеокодек: MPEG-4 AVC/H.264
Битрейт видео: ~4643 kbps
Размер кадра: 1280x544
Качество видео: BDRip 720p
Аудио 1: AC3 Русский 2.0 / 48 kHz / 192 kbps / 16-bit Многоголосый закадровый
Аудио 2: AC3 Английский 2.0 / 48 kHz / 192 kbps / 16-bit Дублированный
Аудио 3: DTS Итальянский 1ch / 48 kHz /384 kbps / 24-bit Оригинал
Сэмпл: Ссылка

MediaInfo

Общее
Уникальный идентификатор : 226965356680617048032008765270578189382 (0xAABFF00B991D38C88D808C9A8AAC5446)
Полное имя : C:\Xvid4PSP\Меня зовут Никто.1973.BDRip.720p.mkv
Формат : Matroska
Версия формата : Version 4 / Version 2
Размер файла : 4,37 Гбайт
Продолжительность : 1 ч. 55 м.
Общий поток : 5413 Кбит/сек
Название фильма : Il Mio Nome ? Nessuno
Дата кодирования : UTC 2013-03-25 08:44:18
Программа кодирования : mkvmerge v6.1.0 ('Old Devil') built on Mar 2 2013 14:32:37
Библиотека кодирования : libebml v1.3.0 + libmatroska v1.4.0
Видео
Идентификатор : 1
Формат : AVC
Формат/Информация : Advanced Video Codec
Профиль формата : [email protected]
Параметр CABAC формата : Да
Параметр ReFrames формата : 5 кадров
Идентификатор кодека : V_MPEG4/ISO/AVC
Продолжительность : 1 ч. 55 м.
Битрейт : 4643 Кбит/сек
Ширина : 1280 пикселей
Высота : 544 пикселя
Соотношение сторон : 2,35:1
Режим частоты кадров : Постоянный
Частота кадров : 23,976 кадра/сек
Цветовое пространство : YUV
Субдискретизация насыщенности : 4:2:0
Битовая глубина : 8 бит
Тип развёртки : Прогрессивная
Бит/(Пиксели*Кадры) : 0.278
Размер потока : 3,66 Гбайт (84%)
Заголовок : Il Mio Nome ? Nessuno
Библиотека кодирования : x264 core 66 r1088 71ac0a3
Настройки программы : cabac=1 / ref=5 / deblock=1:-2:-1 / analyse=0x3:0x133 / me=umh / subme=9 / psy_rd=0.8:0.0 / mixed_ref=1 / me_range=24 / chroma_me=1 / trellis=1 / 8x8dct=1 / cqm=0 / deadzone=21,11 / chroma_qp_offset=-2 / threads=3 / nr=0 / decimate=1 / mbaff=0 / bframes=5 / b_pyramid=1 / b_adapt=2 / b_bias=0 / direct=3 / wpredb=1 / keyint=240 / keyint_min=24 / scenecut=40(pre) / rc=2pass / bitrate=4643 / ratetol=1.0 / qcomp=0.60 / qpmin=1 / qpmax=51 / qpstep=8 / cplxblur=20.0 / qblur=0.5 / vbv_maxrate=40000 / vbv_bufsize=40000 / ip_ratio=1.30 / pb_ratio=1.10 / aq=1:0.40
Язык : Italian
Default : Да
Forced : Нет
Аудио #1
Идентификатор : 2
Формат : AC-3
Формат/Информация : Audio Coding 3
Расширение режима : CM (complete main)
Параметр Endianness формата : Big
Идентификатор кодека : A_AC3
Продолжительность : 1 ч. 55 м.
Вид битрейта : Постоянный
Битрейт : 192 Кбит/сек
Каналы : 2 канала
Расположение каналов : Front: L R
Частота : 48,0 КГц
Битовая глубина : 16 бит
Метод сжатия : С потерями
Задержка видео : 16 мс.
Размер потока : 159 Мбайт (4%)
Язык : Russian
Default : Да
Forced : Нет
Аудио #2
Идентификатор : 3
Формат : AC-3
Формат/Информация : Audio Coding 3
Расширение режима : CM (complete main)
Параметр Endianness формата : Big
Идентификатор кодека : A_AC3
Продолжительность : 1 ч. 55 м.
Вид битрейта : Постоянный
Битрейт : 192 Кбит/сек
Каналы : 2 канала
Расположение каналов : Front: L R
Частота : 48,0 КГц
Битовая глубина : 16 бит
Метод сжатия : С потерями
Задержка видео : 16 мс.
Размер потока : 159 Мбайт (4%)
Язык : English
Default : Нет
Forced : Нет
Аудио #3
Идентификатор : 4
Формат : DTS
Формат/Информация : Digital Theater Systems
Режим : 16
Параметр Endianness формата : Big
Идентификатор кодека : A_DTS
Продолжительность : 1 ч. 55 м.
Вид битрейта : Постоянный
Битрейт : 384 Кбит/сек
Каналы : 1 канал
Расположение каналов : Front: C
Частота : 48,0 КГц
Битовая глубина : 24 бит
Метод сжатия : С потерями
Размер потока : 318 Мбайт (7%)
Заголовок : Italiano 1.0
Язык : Italian
Default : Нет
Forced : Нет
Текст #1
Идентификатор : 5
Формат : UTF-8
Идентификатор кодека : S_TEXT/UTF8
Идентификатор кодека/Информация : UTF-8 Plain Text
Язык : Russian
Default : Нет
Forced : Нет
Текст #2
Идентификатор : 6
Формат : UTF-8
Идентификатор кодека : S_TEXT/UTF8
Идентификатор кодека/Информация : UTF-8 Plain Text
Заголовок : Italiano (Non Udenti)
Язык : Italian
Default : Да
Forced : Нет
Меню
00:00:00.000 : it:Gli Stranieri
00:04:39.654 : it:La Barba
00:11:00.577 : it:Nessuno
00:16:57.391 : it:La Miniera
00:22:55.749 : it:Il Telegramma
00:29:25.806 : it:A Cavallo
00:33:10.655 : it:I Migliori
00:40:03.276 : it:Luna Park
00:44:27.540 : it:Il Gioco
00:51:42.057 : it:Un Whisky
00:56:35.183 : it:Il Duello
01:04:40.460 : it:Gli Specchi
01:08:07.834 : it:La Storia
01:13:25.234 : it:L'Uccellino
01:20:01.255 : it:Sullivan
01:23:25.751 : it:Contro Il Destino
01:30:50.987 : it:Il Treno
01:33:24.265 : it:In Bellezza
01:39:13.990 : it:Sui Libri Di Storia
01:45:04.590 : it:L'Ultimo Duello
Скриншоты:

Время раздачи: 24/7

[Цитировать]



Показать сообщения:    

Текущее время: 04-Дек 02:51

Часовой пояс: UTC + 3


Вы не можете начинать темы
Вы не можете отвечать на сообщения
Вы не можете редактировать свои сообщения
Вы не можете удалять свои сообщения
Вы не можете голосовать в опросах
Вы не можете прикреплять файлы к сообщениям
Вы не можете скачивать файлы

!ВНИМАНИЕ!
Сайт не предоставляет электронные версии произведений, а занимается лишь коллекционированием и каталогизацией ссылок, присылаемых и публикуемых на форуме нашими читателями. Если вы являетесь правообладателем какого-либо представленного материала и не желаете, чтобы ссылка на него находилась в нашем каталоге, свяжитесь с нами, и мы незамедлительно удалим ее. Файлы для обмена на трекере предоставлены пользователями сайта, и администрация не несет ответственности за их содержание. Просьба не заливать файлы, защищенные авторскими правами, а также файлы нелегального содержания!