[ Сегодня идет свободное скачивание без начисления Download ]


Статистика раздачи
Нет
 
   
 
Top  
 
 
-Миланский калибр 9 / Milano calibro 9 (1972) BDRip- Русское название: Миланский калибр 9
Оригинальное название: Milano calibro 9
Год выпуска: 1972
Страна: Италия
Жанр: Боевик, Криминал
Описание фильма:
История закручивается на чемодане с деньгами, который бандиты передавали друг другу, а в результате босс обнаружил в нём бумагу вместо денег. Всех подельников пытали и убили, кроме одного. Это был Уго Пьяцца. Он сел в тюрьму на три года, и после выхода на свободу его сразу же начали преследовать старые подельники, на 100% уверенные, что это он украл деньги. Они не спешат убить его, а он старается доказать, что не имеет никакого отношения к пропаже денег. Но кто же тогда своровал такую большую сумму и остался незамеченным?
Режиссер: Фернандо Ди Лео
Актеры: Гастоне Москин, Барбара Буше, Марио Адорф, Фрэнк Вулф, Луиджи Пистилли, Иво Гаррани, Филипп Леруа, Лайонел Стэндер, Марио Новелли, Джузеппе Кастеллано
Продолжительность: 01:42:03
Перевод: Одноголосый закадровый
Язык субтитров: Русские, Английские
Вид субтитров: Вшитые

Дата мировой премьеры: 15 февраля 1972
Видеокодек: MPEG-4 AVC/H.264
Битрейт видео: ~10800 kbit/s
Размер кадра: 1888x1020
Качество видео: BDRip 1080p
Аудио 1: AC3 Русский 2.0 / 48 kHz / 192 kbps / 16-bit Одноголосый закадровый
Аудио 2: AC3 Английский 2.0 / 48 kHz / 192 kbps / 16-bit Дублированный
Аудио 3: AC3 Итальянский 2.0 / 48 kHz / 192 kbps / 16-bit Оригинал
Сэмпл: Ссылка

MediaInfo

Общее
Уникальный идентификатор : 208491370990426153273553965776535442416 (0x9CD9FA3A67893FEEA5976A7D796253F0)
Полное имя : C:\Xvid4PSP\Миланский калибр.9.1972.x264.BDRip.1080p.mkv
Формат : Matroska
Версия формата : Version 4 / Version 2
Размер файла : 8,30 Гбайт
Продолжительность : 1 ч. 42 м.
Общий поток : 11,6 Мбит/сек
Название фильма : Миланский калибр 9 / Milano calibro 9 / 1972 / BDRip -- STarankov
Дата кодирования : UTC 2013-03-24 10:37:16
Программа кодирования : mkvmerge v6.1.0 ('Old Devil') built on Mar 2 2013 14:32:37
Библиотека кодирования : libebml v1.3.0 + libmatroska v1.4.0
Видео
Идентификатор : 1
Формат : AVC
Формат/Информация : Advanced Video Codec
Профиль формата : [email protected]
Параметр CABAC формата : Да
Параметр ReFrames формата : 4 кадра
Идентификатор кодека : V_MPEG4/ISO/AVC
Продолжительность : 1 ч. 42 м.
Битрейт : 10,8 Мбит/сек
Ширина : 1888 пикселей
Высота : 1020 пикселей
Соотношение сторон : 1,85:1
Режим частоты кадров : Постоянный
Частота кадров : 23,976 кадра/сек
Цветовое пространство : YUV
Субдискретизация насыщенности : 4:2:0
Битовая глубина : 8 бит
Тип развёртки : Прогрессивная
Бит/(Пиксели*Кадры) : 0.235
Размер потока : 7,72 Гбайт (93%)
Библиотека кодирования : x264 core 129 r2245 bc13772
Настройки программы : cabac=1 / ref=4 / deblock=1:-1:-1 / analyse=0x3:0x113 / me=umh / subme=9 / psy=1 / psy_rd=1.00:0.15 / mixed_ref=1 / me_range=24 / chroma_me=1 / trellis=2 / 8x8dct=1 / cqm=0 / deadzone=21,11 / fast_pskip=1 / chroma_qp_offset=-3 / threads=6 / lookahead_threads=1 / sliced_threads=0 / nr=0 / decimate=1 / interlaced=0 / bluray_compat=0 / constrained_intra=0 / bframes=7 / b_pyramid=2 / b_adapt=2 / b_bias=0 / direct=1 / weightb=0 / open_gop=0 / weightp=2 / keyint=230 / keyint_min=23 / scenecut=40 / intra_refresh=0 / rc=crf / mbtree=0 / crf=22.5 / qcomp=0.60 / qpmin=0 / qpmax=69 / qpstep=4 / ip_ratio=1.40 / pb_ratio=1.30 / aq=1:1.00
Язык : Italian
Default : Да
Forced : Нет
Аудио #1
Идентификатор : 2
Формат : AC-3
Формат/Информация : Audio Coding 3
Расширение режима : CM (complete main)
Параметр Endianness формата : Big
Идентификатор кодека : A_AC3
Продолжительность : 1 ч. 42 м.
Вид битрейта : Постоянный
Битрейт : 192 Кбит/сек
Каналы : 2 канала
Расположение каналов : Front: L R
Частота : 48,0 КГц
Битовая глубина : 16 бит
Метод сжатия : С потерями
Размер потока : 140 Мбайт (2%)
Заголовок : VO (любительский одноголосый)
Язык : Russian
Default : Да
Forced : Нет
Аудио #2
Идентификатор : 3
Формат : AC-3
Формат/Информация : Audio Coding 3
Расширение режима : CM (complete main)
Параметр Endianness формата : Big
Идентификатор кодека : A_AC3
Продолжительность : 1 ч. 42 м.
Вид битрейта : Постоянный
Битрейт : 192 Кбит/сек
Каналы : 2 канала
Расположение каналов : Front: L R
Частота : 48,0 КГц
Битовая глубина : 16 бит
Метод сжатия : С потерями
Размер потока : 140 Мбайт (2%)
Заголовок : DUB
Язык : English
Default : Нет
Forced : Нет
Аудио #3
Идентификатор : 4
Формат : AC-3
Формат/Информация : Audio Coding 3
Расширение режима : CM (complete main)
Параметр Endianness формата : Big
Идентификатор кодека : A_AC3
Продолжительность : 1 ч. 42 м.
Вид битрейта : Постоянный
Битрейт : 192 Кбит/сек
Каналы : 2 канала
Расположение каналов : Front: L R
Частота : 48,0 КГц
Битовая глубина : 16 бит
Метод сжатия : С потерями
Размер потока : 140 Мбайт (2%)
Заголовок : Original
Язык : Italian
Default : Нет
Forced : Нет
Текст #1
Идентификатор : 5
Формат : UTF-8
Идентификатор кодека : S_TEXT/UTF8
Идентификатор кодека/Информация : UTF-8 Plain Text
Заголовок : русский
Язык : Russian
Default : Нет
Forced : Нет
Текст #2
Идентификатор : 6
Формат : UTF-8
Идентификатор кодека : S_TEXT/UTF8
Идентификатор кодека/Информация : UTF-8 Plain Text
Заголовок : английский
Default : Нет
Forced : Нет
Скриншоты:

Время раздачи: 24/7

[Цитировать]



Показать сообщения:    

Текущее время: 07-Дек 00:57

Часовой пояс: UTC + 3


Вы не можете начинать темы
Вы не можете отвечать на сообщения
Вы не можете редактировать свои сообщения
Вы не можете удалять свои сообщения
Вы не можете голосовать в опросах
Вы не можете прикреплять файлы к сообщениям
Вы не можете скачивать файлы

!ВНИМАНИЕ!
Сайт не предоставляет электронные версии произведений, а занимается лишь коллекционированием и каталогизацией ссылок, присылаемых и публикуемых на форуме нашими читателями. Если вы являетесь правообладателем какого-либо представленного материала и не желаете, чтобы ссылка на него находилась в нашем каталоге, свяжитесь с нами, и мы незамедлительно удалим ее. Файлы для обмена на трекере предоставлены пользователями сайта, и администрация не несет ответственности за их содержание. Просьба не заливать файлы, защищенные авторскими правами, а также файлы нелегального содержания!