[ Сегодня идет свободное скачивание без начисления Download ]


Статистика раздачи
Нет
 
   
 
Top  
 
 
Чтец / The Reader
Страна: США, Германия
Жанр: драма, мелодрама
Год выпуска: 2008
Продолжительность: 02:03:58
Перевод: Профессиональный (многоголосый закадровый)
Перевод 2: Авторский (одноголосый закадровый) Сербин
Перевод 3: Профессиональный (многоголосый закадровый) Киномания - отдельно
Cубтитры: русские, английские
Оригинальная аудиодорожка: английский
Режиссер: Стивен Долдри / Stephen Daldry
В ролях: Рэйф Файнс, Кейт Уинслет, Давид Кросс, Жанетт Хайн, Сюзанна Лотар, Алисса Вильм, Флориан Бартоломай, Фредерике Бехт, Маттиас Хабих, Фридер Венус
Описание: Повествование структурировано на три истории, каждая из которых вызывается из памяти постаревшим Михаэлем Бергом. Первая часть происходит в 1950-е годы в послевоенной Германии, в провинциальном городке, название которого не указывается (подразумевается Гейдельберг). Вторая часть — спустя 10 лет — происходит в Берлине, где Михаэль изучает юриспруденцию. Заключительная часть истории происходит в 1990-е годы.
Сэмпл: http://multi-up.com/846910

Тип релиза: BDRip 720p
Контейнер: MKV
Видео: MPEG-4 AVC, 6062 Кбит/с, 1280x692, 23.976 кадр/с
Аудио: Русский, AC3 Dolby Digital, 3/2 (L,C,R,l,r) + LFE ch, 48.0 КГц, ~448 Кбит/сек
Аудио 2: Русский, DTS, 6 ch, 48.0 КГц, 1536 Кбит/с
Аудио 3: Англиский, DTS, 6 ch, 48.0 КГц, 1536 Кбит/с
Аудио 4: Русский, AC3 Dolby Digital, 3/2 (L,C,R,l,r) + LFE ch, 48,0 КГц, ~448 Кбит/сек - MVO [Киномания] - Отдельно
Формат субтитров: softsub (SRT)
Доп. информация о субтитрах: rus, eng

MediaInfo

E:\Downloads\????\The Reader.2008.x264.BDRip.720p.mkv
General
Unique ID : 255043252363755545425079020122736799454 (0xBFDF8B2EE207BC4BA8F72445AC79AEDE)
Complete name : E:\Downloads\????\The Reader.2008.x264.BDRip.720p.mkv
Format : Matroska
Format version : Version 4 / Version 2
File size : 8.26 GiB
Duration : 2h 3mn
Overall bit rate : 9 533 Kbps
Movie name : The Reader (2008) - Release for HDClub by -DaRkY-
Encoded date : UTC 2013-03-24 11:39:01
Writing application : mkvmerge v6.1.0 ('Old Devil') built on Mar 2 2013 14:32:37
Writing library : libebml v1.3.0 + libmatroska v1.4.0
Video #1
ID : 1
Format : AVC
Format/Info : Advanced Video Codec
Format profile : [email protected]
Format settings, CABAC : Yes
Format settings, ReFrames : 9 frames
Codec ID : V_MPEG4/ISO/AVC
Duration : 2h 3mn
Bit rate : 6 062 Kbps
Width : 1 280 pixels
Height : 692 pixels
Display aspect ratio : 1.85:1
Frame rate mode : Constant
Frame rate : 23.976 fps
Color space : YUV
Chroma subsampling : 4:2:0
Bit depth : 8 bits
Scan type : Progressive
Bits/(Pixel*Frame) : 0.285
Stream size : 5.09 GiB (62%)
Title : Release for HDClub by -DaRkY-
Writing library : x264 core 67 r1139M 1024283
Encoding settings : cabac=1 / ref=9 / deblock=1:-3:-3 / analyse=0x3:0x133 / me=umh / subme=9 / psy_rd=1.5:0.2 / mixed_ref=1 / me_range=32 / chroma_me=1 / trellis=2 / 8x8dct=1 / cqm=0 / deadzone=21,11 / chroma_qp_offset=-5 / threads=6 / nr=0 / decimate=1 / mbaff=0 / bframes=8 / b_pyramid=1 / b_adapt=2 / b_bias=0 / direct=1 / wpredb=1 / keyint=250 / keyint_min=25 / scenecut=40 / rc=2pass / bitrate=6062 / ratetol=1.0 / qcomp=0.60 / qpmin=10 / qpmax=51 / qpstep=4 / cplxblur=20.0 / qblur=0.5 / ip_ratio=1.40 / pb_ratio=1.30 / aq=1:1.00
Language : English
Default : Yes
Forced : No
Audio #2
ID : 2
Format : AC-3
Format/Info : Audio Coding 3
Mode extension : CM (complete main)
Format settings, Endianness : Big
Codec ID : A_AC3
Duration : 2h 3mn
Bit rate mode : Constant
Bit rate : 448 Kbps
Channel(s) : 6 channels
Channel positions : Front: L C R, Side: L R, LFE
Sampling rate : 48.0 KHz
Bit depth : 16 bits
Compression mode : Lossy
Stream size : 397 MiB (5%)
Title : ???????
Language : Russian
Default : No
Forced : No
Audio #3
ID : 3
Format : DTS
Format/Info : Digital Theater Systems
Mode : 16
Format settings, Endianness : Big
Codec ID : A_DTS
Duration : 2h 3mn
Bit rate mode : Constant
Bit rate : 1 509 Kbps
Channel(s) : 6 channels
Channel positions : Front: L C R, Side: L R, LFE
Sampling rate : 48.0 KHz
Bit depth : 24 bits
Compression mode : Lossy
Stream size : 1.31 GiB (16%)
Title : DTS 5.1 1536 kbps ??????????? ?????????? - ?.??????
Language : Russian
Default : Yes
Forced : No
Audio #4
ID : 4
Format : DTS
Format/Info : Digital Theater Systems
Mode : 16
Format settings, Endianness : Big
Codec ID : A_DTS
Duration : 2h 3mn
Bit rate mode : Constant
Bit rate : 1 510 Kbps
Channel(s) : 6 channels
Channel positions : Front: L C R, Side: L R, LFE
Sampling rate : 48.0 KHz
Bit depth : 24 bits
Compression mode : Lossy
Stream size : 1.31 GiB (16%)
Title : DTS 5.1 1536 kbps
Language : English
Default : No
Forced : No
Text #5
ID : 5
Format : UTF-8
Codec ID : S_TEXT/UTF8
Codec ID/Info : UTF-8 Plain Text
Title : ?.??????
Language : Russian
Default : No
Forced : No
Text #6
ID : 6
Format : UTF-8
Codec ID : S_TEXT/UTF8
Codec ID/Info : UTF-8 Plain Text
Language : English
Default : No
Forced : No

Скриншоты

[Цитировать]



Показать сообщения:    

Текущее время: 06-Дек 08:49

Часовой пояс: UTC + 3


Вы не можете начинать темы
Вы не можете отвечать на сообщения
Вы не можете редактировать свои сообщения
Вы не можете удалять свои сообщения
Вы не можете голосовать в опросах
Вы не можете прикреплять файлы к сообщениям
Вы не можете скачивать файлы

!ВНИМАНИЕ!
Сайт не предоставляет электронные версии произведений, а занимается лишь коллекционированием и каталогизацией ссылок, присылаемых и публикуемых на форуме нашими читателями. Если вы являетесь правообладателем какого-либо представленного материала и не желаете, чтобы ссылка на него находилась в нашем каталоге, свяжитесь с нами, и мы незамедлительно удалим ее. Файлы для обмена на трекере предоставлены пользователями сайта, и администрация не несет ответственности за их содержание. Просьба не заливать файлы, защищенные авторскими правами, а также файлы нелегального содержания!