[ Сегодня идет свободное скачивание без начисления Download ]


Статистика раздачи
Нет
 
   
 
Top  
 
 

Линкольн / Lincoln
Страна: США
Жанр: драма, военный, биография, исторический
Год выпуска: 2012
Продолжительность: 02:29:57
Перевод: Профессиональный (многоголосый закадровый) | BaibaKo
Cубтитры: русские (Notabenoid), английские
Оригинальная аудиодорожка: английский
Режиссер: Стивен Спилберг
В ролях: Дэниэл Дэй-Льюис, Салли Филд, Дэвид Стрэтэйрн, Джозеф Гордон-Левитт, Джеймс Спэйдер, Хэл Холбрук, Томми Ли Джонс, Джон Хоукс, Джеки Эрл Хейли, Брюс МакГилл
Описание: Биографическая лента об Аврааме Линкольне, шестнадцатом президенте США, который внес неоценимый вклад в победу северян во времена гражданской войны

Исходник: Lincoln 2012 1080p Blu-ray Remux AVC DTS-HD MA 7.1 - KRaLiMaRKo
Качество видео: BDRip-AVC | sample
Формат видео: MKV
Видео кодек: x264
Видео: AVC 1152x480 (2.40:1), 23.976 fps, ~3600 Kbps, 0.27 bit/pixel
Аудио #1: Russian AC3 6ch 48kHz 384Kbps | MVO BaibaKo
Аудио #2: English AC3 6ch 48kHz 448Kbps | Original
Формат субтитров: softsub (SRT)
Главы: есть

MediaInfo | x264

x264

--[NoImage] raw [info]: 1152x480p 1:1 @ 24000/1001 fps (cfr)
--[NoImage] x264 [info]: using SAR=1/1
--[NoImage] x264 [info]: using cpu capabilities: MMX2 SSE2Fast FastShuffle SSEMisalign LZCNT
--[NoImage] x264 [info]: profile High, level 4.1
--[NoImage] x264 [info]: cabac=1 ref=12 deblock=1:-3:-3 analyse=0x3:0x113 me=umh subme=11 psy=1 fade_compensate=0.00 psy_rd=1.05:0.10 mixed_ref=1 me_range=48 chroma_me=1 trellis=2 8x8dct=1 cqm=0 deadzone=21,11 fast_pskip=1 chroma_qp_offset=-3 threads=6 lookahead_threads=1 sliced_threads=0 nr=0 decimate=1 interlaced=0 bluray_compat=0 constrained_intra=0 bframes=16 b_pyramid=2 b_adapt=2 b_bias=0 direct=1 weightb=1 open_gop=0 weightp=2 keyint=240 keyint_min=23 scenecut=40 intra_refresh=0 rc_lookahead=40 rc=crf mbtree=0 crf=17.8000 qcomp=0.70 qpmin=0 qpmax=69 qpstep=4 vbv_maxrate=50000 vbv_bufsize=62500 crf_max=0.0 nal_hrd=none ip_ratio=1.40 pb_ratio=1.20 aq=3:1.00 zones=206150,215712,q=30
--[NoImage] frames fps kb/s elapsed remain size est.size
--[NoImage] x264 [info]: frame I:1322 Avg QP:13.61 size: 95763
--[NoImage] x264 [info]: frame P:36475 Avg QP:16.01 size: 33645
--[NoImage] x264 [info]: frame B:177916 Avg QP:16.76 size: 15157
--[NoImage] x264 [info]: consecutive B-frames: 0.9% 0.7% 2.5% 10.9% 13.2% 38.4% 11.4% 3.9% 3.9% 2.7% 2.4% 2.0% 2.0% 2.6% 1.0% 0.6% 0.9%
--[NoImage] x264 [info]: mb I I16..4: 26.1% 45.2% 28.7%
--[NoImage] x264 [info]: mb P I16..4: 1.2% 8.1% 1.3% P16..4: 25.8% 36.5% 18.6% 0.0% 0.0% skip: 8.5%
--[NoImage] x264 [info]: mb B I16..4: 0.2% 1.5% 0.1% B16..8: 32.6% 25.7% 6.5% direct: 7.0% skip:26.4% L0:46.8% L1:39.9% BI:13.3%
--[NoImage] x264 [info]: 8x8 transform intra:74.4% inter:39.6%
--[NoImage] x264 [info]: coded y,uvDC,uvAC intra: 94.9% 82.5% 74.3% inter: 31.5% 19.6% 5.2%
--[NoImage] x264 [info]: i16 v,h,dc,p: 13% 5% 37% 45%
--[NoImage] x264 [info]: i8 v,h,dc,ddl,ddr,vr,hd,vl,hu: 11% 9% 19% 8% 10% 10% 10% 10% 12%
--[NoImage] x264 [info]: i4 v,h,dc,ddl,ddr,vr,hd,vl,hu: 10% 7% 12% 9% 14% 13% 12% 11% 13%
--[NoImage] x264 [info]: i8c dc,h,v,p: 53% 21% 14% 11%
--[NoImage] x264 [info]: Weighted P-Frames: Y:4.0% UV:1.0%
--[NoImage] x264 [info]: ref P L0: 38.3% 7.5% 19.8% 7.4% 7.0% 4.7% 4.8% 2.3% 2.5% 1.9% 2.0% 1.7% 0.1% 0.0%
--[NoImage] x264 [info]: ref B L0: 59.1% 15.2% 8.4% 4.7% 3.4% 3.0% 2.4% 1.5% 1.3% 0.7% 0.2%
--[NoImage] x264 [info]: ref B L1: 89.0% 11.0%
--[NoImage] x264 [info]: kb/s:3601.68
General
Complete name : E:\...\Lincoln.2012.BDRip.x264.DD5.1.Rus.Eng-E76.mkv
Format : Matroska
Format version : Version 2
File size : 4.65 GiB
Duration : 2h 29mn
Overall bit rate : 4 436 Kbps
Movie name : Lincoln.2012.BDRip.x264.DD5.1.Rus.Eng-E76
Encoded date : UTC 2013-03-13 04:06:09
Writing application : mkvmerge v5.8.0 ('No Sleep / Pillow') built on Sep 2 2012 15:37:04
Writing library : libebml v1.2.3 + libmatroska v1.3.0
Video
ID : 1
Format : AVC
Format/Info : Advanced Video Codec
Format profile : High@L4.1
Format settings, CABAC : Yes
Format settings, ReFrames : 12 frames
Codec ID : V_MPEG4/ISO/AVC
Bit rate : 3 516 Kbps
Width : 1 152 pixels
Height : 480 pixels
Display aspect ratio : 2.40:1
Frame rate mode : Variable
Original frame rate : 23.976 fps
Color space : YUV
Chroma subsampling : 4:2:0
Bit depth : 8 bits
Scan type : Progressive
Title : Encode by Enclave76
Writing library : x264 core 129 r2245kMod bc13772
Encoding settings : cabac=1 / ref=12 / deblock=1:-3:-3 / analyse=0x3:0x113 / me=umh / subme=11 / psy=1 / fade_compensate=0.00 / psy_rd=1.05:0.10 / mixed_ref=1 / me_range=48 / chroma_me=1 / trellis=2 / 8x8dct=1 / cqm=0 / deadzone=21,11 / fast_pskip=1 / chroma_qp_offset=-3 / threads=6 / lookahead_threads=1 / sliced_threads=0 / nr=0 / decimate=1 / interlaced=0 / bluray_compat=0 / constrained_intra=0 / bframes=16 / b_pyramid=2 / b_adapt=2 / b_bias=0 / direct=1 / weightb=1 / open_gop=0 / weightp=2 / keyint=240 / keyint_min=23 / scenecut=40 / intra_refresh=0 / rc_lookahead=40 / rc=crf / mbtree=0 / crf=17.8000 / qcomp=0.70 / qpmin=0 / qpmax=69 / qpstep=4 / vbv_maxrate=50000 / vbv_bufsize=62500 / crf_max=0.0 / nal_hrd=none / ip_ratio=1.40 / pb_ratio=1.20 / aq=3:1.00 / zones=206150,215712,q=30
Language : English
Default : No
Forced : No
Matrix coefficients : BT.709
Audio #1
ID : 2
Format : AC-3
Format/Info : Audio Coding 3
Mode extension : CM (complete main)
Format settings, Endianness : Big
Codec ID : A_AC3
Duration : 2h 29mn
Bit rate mode : Constant
Bit rate : 384 Kbps
Channel(s) : 6 channels
Channel positions : Front: L C R, Side: L R, LFE
Sampling rate : 48.0 KHz
Bit depth : 16 bits
Compression mode : Lossy
Stream size : 412 MiB (9%)
Title : MVO BaibaKo
Language : Russian
Default : Yes
Forced : No
Audio #2
ID : 3
Format : AC-3
Format/Info : Audio Coding 3
Mode extension : CM (complete main)
Format settings, Endianness : Big
Codec ID : A_AC3
Duration : 2h 29mn
Bit rate mode : Constant
Bit rate : 448 Kbps
Channel(s) : 6 channels
Channel positions : Front: L C R, Side: L R, LFE
Sampling rate : 48.0 KHz
Bit depth : 16 bits
Compression mode : Lossy
Stream size : 480 MiB (10%)
Title : Original
Language : English
Default : No
Forced : No
Text #1
ID : 4
Format : UTF-8
Codec ID : S_TEXT/UTF8
Codec ID/Info : UTF-8 Plain Text
Title : Notabenoid
Language : Russian
Default : No
Forced : No
Text #2
ID : 5
Format : UTF-8
Codec ID : S_TEXT/UTF8
Codec ID/Info : UTF-8 Plain Text
Language : English
Default : No
Forced : No
Text #3
ID : 6
Format : UTF-8
Codec ID : S_TEXT/UTF8
Codec ID/Info : UTF-8 Plain Text
Title : SDH
Language : English
Default : No
Forced : No
Menu
00:00:00.000 : en:Chapter 1
00:06:11.245 : en:Chapter 2
...
02:21:23.308 : en:Chapter 20

Скриншоты





vs source

[Цитировать]



Показать сообщения:    

Текущее время: 10-Дек 13:53

Часовой пояс: UTC + 3


Вы не можете начинать темы
Вы не можете отвечать на сообщения
Вы не можете редактировать свои сообщения
Вы не можете удалять свои сообщения
Вы не можете голосовать в опросах
Вы не можете прикреплять файлы к сообщениям
Вы не можете скачивать файлы

!ВНИМАНИЕ!
Сайт не предоставляет электронные версии произведений, а занимается лишь коллекционированием и каталогизацией ссылок, присылаемых и публикуемых на форуме нашими читателями. Если вы являетесь правообладателем какого-либо представленного материала и не желаете, чтобы ссылка на него находилась в нашем каталоге, свяжитесь с нами, и мы незамедлительно удалим ее. Файлы для обмена на трекере предоставлены пользователями сайта, и администрация не несет ответственности за их содержание. Просьба не заливать файлы, защищенные авторскими правами, а также файлы нелегального содержания!