[ Сегодня идет свободное скачивание без начисления Download ]


Статистика раздачи
Нет
 
   
 
Top  
 
 
Экипаж / Flight
Страна: США
Жанр: драма
Год выпуска: 2012
Продолжительность: 02:18:35
Перевод#1: Профессиональный (дублированный)
Перевод#2: Авторский (одноголосый закадровый), А.Гаврилов (отдельно)
Cубтитры: русские, английские
Оригинальная аудиодорожка: английский
Режиссер: Роберт Земекис
В ролях: Дензел Вашингтон, Дон Чидл, Келли Райлли, Джон Гудмен, Надин Веласкес, Картер Кабасса, Адам Чизельски, Тамара Тюни, Брайан Джерати, Конор О’Нилл
Описание: Опытный пилот Уип Вайтекер чудом избегает крушения самолета, и, совершив аварийную посадку, сохраняет жизни практически всех пассажиров. Уипа чествуют, как героя, но чем больше появляется подробностей о катастрофе, тем больше вопросов возникает: что же на самом деле произошло на борту самолёта...

Доп. информация: исходник хотя и качественный, но зализаный какой-то, зерна добавил, сравнения прилагаются
Исходник: BDRemux, спасибо Talian70
Качество видео: BDRip-AVC | sample
Формат видео: MKV
Видео кодек: x264
Видео: AVC 1152x480 (2.40:1), 23.976 fps, ~3500 Kbps, 0.26 bit/pixel
Аудио #1: Russian AC3 6ch 48kHz 448Kbps | Dub
Аудио #2: English AC3 6ch 48kHz 448Kbps | Original
Аудио #3: Russian AC3 6ch 48kHz 448Kbps | AVO Гаврилов (отдельным файлом)
Формат субтитров: softsub (SRT)
Главы: есть

MediaInfo | x264

x264

--[NoImage] raw [info]: 1152x480p 1:1 @ 24000/1001 fps (cfr)
--[NoImage] x264 [info]: using SAR=1/1
--[NoImage] x264 [info]: using cpu capabilities: MMX2 SSE2Fast FastShuffle SSEMisalign LZCNT
--[NoImage] x264 [info]: profile High, level 4.1
--[NoImage] x264 [info]: cabac=1 ref=12 deblock=1:-3:-3 analyse=0x3:0x113 me=umh subme=11 psy=1 fade_compensate=0.00 psy_rd=1.00:0.00 mixed_ref=1 me_range=48 chroma_me=1 trellis=2 8x8dct=1 cqm=0 deadzone=21,11 fast_pskip=1 chroma_qp_offset=-2 threads=6 lookahead_threads=1 sliced_threads=0 nr=0 decimate=1 interlaced=0 bluray_compat=0 constrained_intra=0 bframes=16 b_pyramid=2 b_adapt=2 b_bias=0 direct=1 weightb=1 open_gop=0 weightp=2 keyint=240 keyint_min=23 scenecut=40 intra_refresh=0 rc_lookahead=40 rc=crf mbtree=0 crf=16.5000 qcomp=0.65 qpmin=0 qpmax=69 qpstep=4 vbv_maxrate=50000 vbv_bufsize=62500 crf_max=0.0 nal_hrd=none ip_ratio=1.40 pb_ratio=1.30 aq=3:1.00 zones=192400,199368,q=30
--[NoImage] frames fps kb/s elapsed remain size est.size
--[NoImage] x264 [info]: frame I:1182 Avg QP:13.74 size: 90170
--[NoImage] x264 [info]: frame P:35623 Avg QP:15.46 size: 38588
--[NoImage] x264 [info]: frame B:162564 Avg QP:16.11 size: 13235
--[NoImage] x264 [info]: consecutive B-frames: 1.1% 0.9% 3.8% 12.5% 14.7% 40.8% 7.2% 2.3% 3.3% 1.4% 2.5% 1.9% 2.2% 2.0% 1.5% 0.8% 1.0%
--[NoImage] x264 [info]: mb I I16..4: 2.6% 81.6% 15.9%
--[NoImage] x264 [info]: mb P I16..4: 0.2% 15.2% 0.9% P16..4: 24.5% 34.6% 19.0% 0.0% 0.0% skip: 5.6%
--[NoImage] x264 [info]: mb B I16..4: 0.0% 0.8% 0.1% B16..8: 30.5% 27.6% 9.1% direct: 6.0% skip:25.9% L0:47.6% L1:40.1% BI:12.3%
--[NoImage] x264 [info]: 8x8 transform intra:91.2% inter:43.3%
--[NoImage] x264 [info]: coded y,uvDC,uvAC intra: 98.1% 89.8% 78.7% inter: 35.7% 16.4% 5.0%
--[NoImage] x264 [info]: i16 v,h,dc,p: 12% 15% 3% 70%
--[NoImage] x264 [info]: i8 v,h,dc,ddl,ddr,vr,hd,vl,hu: 9% 8% 14% 9% 12% 12% 12% 11% 12%
--[NoImage] x264 [info]: i4 v,h,dc,ddl,ddr,vr,hd,vl,hu: 10% 8% 4% 9% 17% 16% 15% 11% 12%
--[NoImage] x264 [info]: i8c dc,h,v,p: 51% 21% 15% 13%
--[NoImage] x264 [info]: Weighted P-Frames: Y:2.2% UV:0.7%
--[NoImage] x264 [info]: ref P L0: 40.3% 9.0% 18.5% 7.2% 6.5% 4.4% 4.3% 2.2% 2.3% 1.7% 1.9% 1.6% 0.1% 0.0%
--[NoImage] x264 [info]: ref B L0: 59.7% 15.0% 8.2% 4.6% 3.4% 2.9% 2.3% 1.5% 1.3% 0.7% 0.2%
--[NoImage] x264 [info]: ref B L1: 89.6% 10.4%
--[NoImage] x264 [info]: kb/s:3494.98
General
Complete name : E:\...\Flight.2012.BDRip.x264.DD5.1.Rus.Eng-E76.mkv
Format : Matroska
Format version : Version 2
File size : 4.25 GiB
Duration : 2h 18mn
Overall bit rate : 4 393 Kbps
Movie name : Flight.2012.BDRip.x264.DD5.1.Rus.Eng-E76
Encoded date : UTC 2013-03-06 06:00:33
Writing application : mkvmerge v5.8.0 ('No Sleep / Pillow') built on Sep 2 2012 15:37:04
Writing library : libebml v1.2.3 + libmatroska v1.3.0
Video
ID : 1
Format : AVC
Format/Info : Advanced Video Codec
Format profile : High@L4.1
Format settings, CABAC : Yes
Format settings, ReFrames : 12 frames
Codec ID : V_MPEG4/ISO/AVC
Duration : 2h 18mn
Bit rate : 3 410 Kbps
Width : 1 152 pixels
Height : 480 pixels
Display aspect ratio : 2.40:1
Frame rate mode : Constant
Frame rate : 23.976 fps
Color space : YUV
Chroma subsampling : 4:2:0
Bit depth : 8 bits
Scan type : Progressive
Bits/(Pixel*Frame) : 0.257
Stream size : 3.30 GiB (78%)
Title : Encode by Enclave76
Writing library : x264 core 129 r2245kMod bc13772
Encoding settings : cabac=1 / ref=12 / deblock=1:-3:-3 / analyse=0x3:0x113 / me=umh / subme=11 / psy=1 / fade_compensate=0.00 / psy_rd=1.00:0.00 / mixed_ref=1 / me_range=48 / chroma_me=1 / trellis=2 / 8x8dct=1 / cqm=0 / deadzone=21,11 / fast_pskip=1 / chroma_qp_offset=-2 / threads=6 / lookahead_threads=1 / sliced_threads=0 / nr=0 / decimate=1 / interlaced=0 / bluray_compat=0 / constrained_intra=0 / bframes=16 / b_pyramid=2 / b_adapt=2 / b_bias=0 / direct=1 / weightb=1 / open_gop=0 / weightp=2 / keyint=240 / keyint_min=23 / scenecut=40 / intra_refresh=0 / rc_lookahead=40 / rc=crf / mbtree=0 / crf=16.5000 / qcomp=0.65 / qpmin=0 / qpmax=69 / qpstep=4 / vbv_maxrate=50000 / vbv_bufsize=62500 / crf_max=0.0 / nal_hrd=none / ip_ratio=1.40 / pb_ratio=1.30 / aq=3:1.00 / zones=192400,199368,q=30
Language : English
Default : No
Forced : No
Matrix coefficients : BT.709
Audio #1
ID : 2
Format : AC-3
Format/Info : Audio Coding 3
Mode extension : CM (complete main)
Format settings, Endianness : Big
Codec ID : A_AC3
Duration : 2h 18mn
Bit rate mode : Constant
Bit rate : 448 Kbps
Channel(s) : 6 channels
Channel positions : Front: L C R, Side: L R, LFE
Sampling rate : 48.0 KHz
Bit depth : 16 bits
Compression mode : Lossy
Stream size : 444 MiB (10%)
Title : Dub
Language : Russian
Default : Yes
Forced : No
Audio #2
ID : 3
Format : AC-3
Format/Info : Audio Coding 3
Mode extension : CM (complete main)
Format settings, Endianness : Big
Codec ID : A_AC3
Duration : 2h 18mn
Bit rate mode : Constant
Bit rate : 448 Kbps
Channel(s) : 6 channels
Channel positions : Front: L C R, Side: L R, LFE
Sampling rate : 48.0 KHz
Bit depth : 16 bits
Compression mode : Lossy
Stream size : 444 MiB (10%)
Title : Original
Language : English
Default : No
Forced : No
Text #1
ID : 4
Format : UTF-8
Codec ID : S_TEXT/UTF8
Codec ID/Info : UTF-8 Plain Text
Title : CEE
Language : Russian
Default : No
Forced : No
Text #2
ID : 5
Format : UTF-8
Codec ID : S_TEXT/UTF8
Codec ID/Info : UTF-8 Plain Text
Title : voronine
Language : Russian
Default : No
Forced : No
Text #3
ID : 6
Format : UTF-8
Codec ID : S_TEXT/UTF8
Codec ID/Info : UTF-8 Plain Text
Language : English
Default : No
Forced : No
Text #4
ID : 7
Format : UTF-8
Codec ID : S_TEXT/UTF8
Codec ID/Info : UTF-8 Plain Text
Title : SDH
Language : English
Default : No
Forced : No
Menu
00:00:00.000 : en:00:00:00.000
00:09:32.572 : en:00:09:32.572
00:17:06.984 : en:00:17:06.984
00:26:16.784 : en:00:26:16.784
00:34:40.203 : en:00:34:40.203
00:45:42.615 : en:00:45:42.615
00:52:01.493 : en:00:52:01.493
01:00:46.768 : en:01:00:46.768
01:10:10.081 : en:01:10:10.081
01:19:30.808 : en:01:19:30.808
01:26:54.543 : en:01:26:54.543
01:37:05.236 : en:01:37:05.236
01:48:54.153 : en:01:48:54.153
01:55:20.122 : en:01:55:20.122
02:11:54.740 : en:02:11:54.740

Скриншоты




source vs E76 vs EbP


[Цитировать]



Показать сообщения:    

Текущее время: 30-Мар 06:47

Часовой пояс: UTC + 6


Вы не можете начинать темы
Вы не можете отвечать на сообщения
Вы не можете редактировать свои сообщения
Вы не можете удалять свои сообщения
Вы не можете голосовать в опросах
Вы не можете прикреплять файлы к сообщениям
Вы не можете скачивать файлы

!ВНИМАНИЕ!
Сайт не предоставляет электронные версии произведений, а занимается лишь коллекционированием и каталогизацией ссылок, присылаемых и публикуемых на форуме нашими читателями. Если вы являетесь правообладателем какого-либо представленного материала и не желаете, чтобы ссылка на него находилась в нашем каталоге, свяжитесь с нами, и мы незамедлительно удалим ее. Файлы для обмена на трекере предоставлены пользователями сайта, и администрация не несет ответственности за их содержание. Просьба не заливать файлы, защищенные авторскими правами, а также файлы нелегального содержания!