[ Сегодня идет свободное скачивание без начисления Download ]


Статистика раздачи
Нет
 
   
 
 
 
-Джанго освобожденный / Django Unchained (2012) HDRip- Русское название: Джанго освобожденный
Оригинальное название: Django Unchained
Год выпуска: 2012
Производство: США / Weinstein Company, The, Columbia Pictures
Жанр: Драма, Вестерн, Комедия, Приключения
Перевод: Авторский одноголосый, закадровый (A. Дольский) / Любительский одноголосый, закадровый (Zamez, Лисиц, Vano)
Субтитры: Вшитые отключаемые
Язык субтитров: Русский, английский
Дата мировой премьеры: 25 декабря 2012
Дата российской премьеры: 17 января 2013, «WDSSPR»
Дата выхода DVD релиза: 2 мая 2013, «Columbia/Sony»
Дата выхода Blu-Ray релиза: 2 мая 2013, «Columbia/Sony»
Режиссер: Квентин Тарантино
Актеры: Джейми Фокс, Кристоф Вальц, Леонардо ДиКаприо, Керри Вашингтон, Сэмюэл Л. Джексон, Уолтон Гоггинс, Деннис Кристофер, Джеймс Римар, Майкл Паркс, Дон ДжонсонОписание фильма:
Эксцентричный охотник за головами, также известный как «Дантист», промышляет отстрелом самых опасных преступников на Диком Западе. Работенка пыльная, и без надежного помощника ему не обойтись. Но как найти такого и желательно не очень дорогого? Беглый раб по имени Джанго — прекрасная кандидатура. Правда, у нового помощника свои мотивы — кое с чем надо разобраться…

Продолжительность: 02:45:22
Качество видео: HDRip
Видеокодек: MPEG-4 AVC/H.264
Битрейт видео: ~1438 Кбит/сек
Размер кадра: 1024x428
Аудио 1: AC3 5.1, 448 kbps, 48.0 KHz [Русский / AVO, Дольский]
Аудио 2: AC3 5.1, 448 kbps, 48.0 KHz [Английский / Оригинал]
Аудио 3: AC3 5.1, 448 kbps, 48.0 KHz [Русский / VO, Zamez] - отдельно
Аудио 4: AC3 5.1, 448 kbps, 48.0 KHz [Русский / VO, Лисиц] - отдельно
Аудио 5: AC3 5.1, 448 kbps, 44.1 KHz [Русский / VO, Vano] - отдельно

MediaInfo:

Полное имя                               : D:\Dzhango.osvobozhdennyj.2012.HDRip.AVC.mkv
Формат                                   : Matroska
Версия формата                           : Version 2
Размер файла                             : 2,70 Гбайт
Продолжительность                        : 2 ч. 45 м.
Общий поток                              : 2336 Кбит/сек
Дата кодирования                         : UTC 2013-03-26 16:23:11
Программа кодирования                    : mkvmerge v5.7.0 ('The Whirlwind') built on Aug  7 2012 14:11:40
Библиотека кодирования                   : libebml v1.2.3 + libmatroska v1.3.0
Видео
Идентификатор                            : 1
Формат                                   : AVC
Формат/Информация                        : Advanced Video Codec
Профиль формата                          : [url=mailto:High@L4.1]High@L4.1[/url]
Параметр CABAC формата                   : Да
Параметр ReFrames формата                : 11 кадров
Идентификатор кодека                     : V_MPEG4/ISO/AVC
Продолжительность                        : 2 ч. 45 м.
Битрейт                                  : 1438 Кбит/сек
Ширина                                   : 1024 пикселя
Высота                                   : 428 пикселей
Соотношение сторон                       : 2,40:1
Режим частоты кадров                     : Постоянный
Частота кадров                           : 23,976 кадра/сек
Цветовое пространство                    : YUV
Субдискретизация насыщенности            : 4:2:0
Битовая глубина                          : 8 бит
Тип развёртки                            : Прогрессивная
Бит/(Пиксели*Кадры)                      : 0.137
Размер потока                            : 1,61 Гбайт (60%)
Библиотека кодирования                   : x264 core 130 r2273 b3065e6
Настройки программы                      : cabac=1 / ref=11 / deblock=1:-3:-2 / analyse=0x3:0x133 / me=umh / subme=10 / psy=1 / psy_rd=1.05:0.10 / mixed_ref=1 / me_range=24 / chroma_me=1 / trellis=2 / 8x8dct=1 / cqm=0 / deadzone=21,11 / fast_pskip=0 / chroma_qp_offset=-3 / threads=12 / lookahead_threads=2 / sliced_threads=0 / nr=0 / decimate=1 / interlaced=0 / bluray_compat=0 / constrained_intra=0 / bframes=9 / b_pyramid=2 / b_adapt=2 / b_bias=0 / direct=3 / weightb=1 / open_gop=0 / weightp=2 / keyint=240 / keyint_min=23 / scenecut=40 / intra_refresh=0 / rc=2pass / mbtree=0 / bitrate=1438 / ratetol=1.0 / qcomp=0.60 / qpmin=0 / qpmax=69 / qpstep=4 / cplxblur=20.0 / qblur=0.5 / ip_ratio=1.40 / pb_ratio=1.30 / aq=1:1.00
Язык                                     : English
Default                                  : Да
Forced                                   : Нет
Аудио #1
Идентификатор                            : 2
Формат                                   : AC-3
Формат/Информация                        : Audio Coding 3
Расширение режима                        : CM (complete main)
Параметр Endianness формата              : Big
Идентификатор кодека                     : A_AC3
Продолжительность                        : 2 ч. 45 м.
Вид битрейта                             : Постоянный
Битрейт                                  : 448 Кбит/сек
Каналы                                   : 6 каналов
Расположение каналов                     : Front: L C R, Side: L R, LFE
Частота                                  : 48,0 КГц
Битовая глубина                          : 16 бит
Метод сжатия                             : С потерями
Размер потока                            : 530 Мбайт (19%)
Заголовок                                : Дольский
Язык                                     : Russian
Default                                  : Да
Forced                                   : Нет
Аудио #2
Идентификатор                            : 3
Формат                                   : AC-3
Формат/Информация                        : Audio Coding 3
Расширение режима                        : CM (complete main)
Параметр Endianness формата              : Big
Идентификатор кодека                     : A_AC3
Продолжительность                        : 2 ч. 45 м.
Вид битрейта                             : Постоянный
Битрейт                                  : 448 Кбит/сек
Каналы                                   : 6 каналов
Расположение каналов                     : Front: L C R, Side: L R, LFE
Частота                                  : 48,0 КГц
Битовая глубина                          : 16 бит
Метод сжатия                             : С потерями
Размер потока                            : 530 Мбайт (19%)
Язык                                     : English
Default                                  : Нет
Forced                                   : Нет
Текст #1
Идентификатор                            : 4
Формат                                   : UTF-8
Идентификатор кодека                     : S_TEXT/UTF8
Идентификатор кодека/Информация          : UTF-8 Plain Text
Язык                                     : Russian
Default                                  : Нет
Forced                                   : Нет
Текст #2
Идентификатор                            : 5
Формат                                   : UTF-8
Идентификатор кодека                     : S_TEXT/UTF8
Идентификатор кодека/Информация          : UTF-8 Plain Text
Язык                                     : English
Default                                  : Нет
Forced                                   : Нет
Меню
00:00:00.000                             : en:00:00:00.000
00:03:36.466                             : en:00:03:36.466
00:12:47.934                             : en:00:12:47.934
00:18:49.420                             : en:00:18:49.420
00:26:48.273                             : en:00:26:48.273
00:31:44.528                             : en:00:31:44.528
00:40:27.133                             : en:00:40:27.133
00:46:05.513                             : en:00:46:05.513
00:52:36.862                             : en:00:52:36.862
00:58:12.823                             : en:00:58:12.823
01:02:20.320                             : en:01:02:20.320
01:12:13.496                             : en:01:12:13.496
01:18:35.794                             : en:01:18:35.794
01:26:08.038                             : en:01:26:08.038
01:34:49.642                             : en:01:34:49.642
01:40:52.380                             : en:01:40:52.380
01:45:34.036                             : en:01:45:34.036
01:50:01.094                             : en:01:50:01.094
01:55:03.980                             : en:01:55:03.980
02:03:54.969                             : en:02:03:54.969
02:08:14.103                             : en:02:08:14.103
02:14:14.380                             : en:02:14:14.380
02:17:28.991                             : en:02:17:28.991
02:22:32.544                             : en:02:22:32.544
02:26:28.530                             : en:02:26:28.530
02:33:00.463                             : en:02:33:00.463
02:35:41.999                             : en:02:35:41.999
02:41:30.931                             : en:02:41:30.931
Полное имя                               : D:\Dzhango.osvobozhdennyj.2012.HDRip.AVC.Rus.Zamez.ac3
Формат                                   : AC-3
Формат/Информация                        : Audio Coding 3
Размер файла                             : 530 Мбайт
Продолжительность                        : 2 ч. 45 м.
Режим общего битрейта                    : Постоянный
Общий поток                              : 448 Кбит/сек
Аудио
Формат                                   : AC-3
Формат/Информация                        : Audio Coding 3
Расширение режима                        : CM (complete main)
Параметр Endianness формата              : Big
Продолжительность                        : 2 ч. 45 м.
Вид битрейта                             : Постоянный
Битрейт                                  : 448 Кбит/сек
Каналы                                   : 6 каналов
Расположение каналов                     : Front: L C R, Side: L R, LFE
Частота                                  : 48,0 КГц
Битовая глубина                          : 16 бит
Метод сжатия                             : С потерями
Размер потока                            : 530 Мбайт (100%)
Полное имя                               : D:\Dzhango.osvobozhdennyj.2012.HDRip.AVC.Rus.Лисиц.ac3
Формат                                   : AC-3
Формат/Информация                        : Audio Coding 3
Размер файла                             : 530 Мбайт
Продолжительность                        : 2 ч. 45 м.
Режим общего битрейта                    : Постоянный
Общий поток                              : 448 Кбит/сек
Аудио
Формат                                   : AC-3
Формат/Информация                        : Audio Coding 3
Расширение режима                        : CM (complete main)
Параметр Endianness формата              : Big
Продолжительность                        : 2 ч. 45 м.
Вид битрейта                             : Постоянный
Битрейт                                  : 448 Кбит/сек
Каналы                                   : 6 каналов
Расположение каналов                     : Front: L C R, Side: L R, LFE
Частота                                  : 48,0 КГц
Битовая глубина                          : 16 бит
Метод сжатия                             : С потерями
Размер потока                            : 530 Мбайт (100%)
Полное имя                               : D:\Dzhango.osvobozhdennyj.2012.HDRip.AVC.Rus.Vano.ac3
Формат                                   : AC-3
Формат/Информация                        : Audio Coding 3
Размер файла                             : 530 Мбайт
Продолжительность                        : 2 ч. 45 м.
Режим общего битрейта                    : Постоянный
Общий поток                              : 448 Кбит/сек
Аудио
Формат                                   : AC-3
Формат/Информация                        : Audio Coding 3
Расширение режима                        : CM (complete main)
Параметр Endianness формата              : Big
Продолжительность                        : 2 ч. 45 м.
Вид битрейта                             : Постоянный
Битрейт                                  : 448 Кбит/сек
Каналы                                   : 6 каналов
Расположение каналов                     : Front: L C R, Side: L R, LFE
Частота                                  : 44,1 КГц
Битовая глубина                          : 16 бит
Метод сжатия                             : С потерями
Размер потока                            : 530 Мбайт (100%)
Скриншоты:


Время раздачи: 24/7 (до 10 скачавших)

[Цитировать]

Топик был перенесен из форума Новинки кинопроката в форум Вестерн
Henkok



Показать сообщения:    

Текущее время: 10-Дек 10:02

Часовой пояс: UTC + 3


Вы не можете начинать темы
Вы не можете отвечать на сообщения
Вы не можете редактировать свои сообщения
Вы не можете удалять свои сообщения
Вы не можете голосовать в опросах
Вы не можете прикреплять файлы к сообщениям
Вы не можете скачивать файлы

!ВНИМАНИЕ!
Сайт не предоставляет электронные версии произведений, а занимается лишь коллекционированием и каталогизацией ссылок, присылаемых и публикуемых на форуме нашими читателями. Если вы являетесь правообладателем какого-либо представленного материала и не желаете, чтобы ссылка на него находилась в нашем каталоге, свяжитесь с нами, и мы незамедлительно удалим ее. Файлы для обмена на трекере предоставлены пользователями сайта, и администрация не несет ответственности за их содержание. Просьба не заливать файлы, защищенные авторскими правами, а также файлы нелегального содержания!