[ Сегодня идет свободное скачивание без начисления Download ]


Статистика раздачи
Нет
 
   
 
 
 
-Джанго освобожденный / Django Unchained (2012) HDRip Русское название: Джанго освобожденный
Оригинальное название: Django Unchained
Год выпуска: 2012
Производство: США
Жанр: Драма, Вестерн, Комедия, Приключения
Перевод: Одноголосый закадровый, профессиональный (А. Дольский)
Дата мировой премьеры: 25 декабря 2012
Дата российской премьеры: 17 января 2013, «WDSSPR»
Дата выхода DVD релиза: 2 мая 2013, «Columbia/Sony»
Режиссер: Квентин Тарантино
Актеры: Джейми Фокс, Кристоф Вальц, Леонардо ДиКаприо, Керри Вашингтон, Сэмюэл Л. Джексон, Джона Хилл, Эмбер Тэмблин, Уолтон Гоггинс, Джеймс Ремар, Дон Джонсон, Зои Белл, Роберт Кэрредин, Брюс Дерн, Майкл Паркс, Джеймс Руссо, Том Савини, Гэри Граббс, Франко Неро, Тодд Аллен, М. К. Гейни, Майкл Боуэн, Деннис Кристофер, Том Вопат, Рекс Линн, Майкл Бэколл, Льюис Смит, Нед Беллами, Дж.Д. Эвермор, Джон Джэррэт, Лаура Кайот
Описание фильма: Эксцентричный охотник за головами, также известный как «Дантист», промышляет отстрелом самых опасных преступников на Диком Западе. Работенка пыльная, и без надежного помощника ему не обойтись. Но как найти такого и желательно не очень дорогого? Беглый раб по имени Джанго — прекрасная кандидатура. Правда, у нового помощника свои мотивы — кое с чем надо разобраться…

Продолжительность: 02:45:22
Качество видео: HDRip
Видеокодек: Xvid
Битрейт видео: ~1055 kb/s
Размер кадра: 720х304
Аудиокодек: AC3 2.0
Битрейт аудио: 192.00 kb/s
Сэмпл: Скачать
&

MediaInfo

Общее
Полное имя : F:\Роздачи\Django Unchained.2012.HDRip.avi
Формат : AVI
Формат/Информация : Audio Video Interleave
Размер файла : 1,45 Гбайт
Продолжительность : 2 ч. 45 м.
Общий поток : 1257 Кбит/сек
Название фильма : Django Unchained.2012.HDRip
Режиссёр : Rulya74
Программа кодирования : VirtualDubMod 1.5.10.3 (build 2550/release)
Видео
Идентификатор : 0
Формат : MPEG-4 Visual
Профиль формата : Advanced Simple@L5
Параметр BVOP формата : 2
Параметр QPel формата : Нет
Параметр GMC формата : Без точки перехода
Параметр матрицы формата : Выборочная
Режим смешивания : Сжатый битовый поток
Идентификатор кодека : XVID
Идентификатор кодека/Подсказка : XviD
Продолжительность : 2 ч. 45 м.
Битрейт : 1055 Кбит/сек
Ширина : 720 пикселей
Высота : 304 пикселя
Соотношение сторон : 2,35:1
Частота кадров : 23,976 кадра/сек
Цветовое пространство : YUV
Субдискретизация насыщенности : 4:2:0
Битовая глубина : 8 бит
Тип развёртки : Прогрессивная
Метод сжатия : С потерями
Бит/(Пиксели*Кадры) : 0.201
Размер потока : 1,22 Гбайт (84%)
Библиотека кодирования : XviD 65
Аудио
Идентификатор : 1
Формат : AC-3
Формат/Информация : Audio Coding 3
Расширение режима : CM (complete main)
Параметр Endianness формата : Big
Идентификатор кодека : 2000
Продолжительность : 2 ч. 45 м.
Вид битрейта : Постоянный
Битрейт : 192 Кбит/сек
Каналы : 2 канала
Расположение каналов : Front: L R
Частота : 48,0 КГц
Битовая глубина : 16 бит
Метод сжатия : С потерями
Размер потока : 227 Мбайт (15%)
Выравнивание : Разделение по промежуткам
Продолжительность промежутка : 42 мс. (1,00 видеокадр)
Время предзагрузки промежутка : 500 мс.
Заголовок : Дольский
Скриншоты:

Время раздачи: с 9:00 до 24:00

[Цитировать]

Топик был перенесен из форума Новинки кинопроката в форум Вестерн
Henkok



Показать сообщения:    

Текущее время: 10-Дек 05:59

Часовой пояс: UTC + 3


Вы не можете начинать темы
Вы не можете отвечать на сообщения
Вы не можете редактировать свои сообщения
Вы не можете удалять свои сообщения
Вы не можете голосовать в опросах
Вы не можете прикреплять файлы к сообщениям
Вы не можете скачивать файлы

!ВНИМАНИЕ!
Сайт не предоставляет электронные версии произведений, а занимается лишь коллекционированием и каталогизацией ссылок, присылаемых и публикуемых на форуме нашими читателями. Если вы являетесь правообладателем какого-либо представленного материала и не желаете, чтобы ссылка на него находилась в нашем каталоге, свяжитесь с нами, и мы незамедлительно удалим ее. Файлы для обмена на трекере предоставлены пользователями сайта, и администрация не несет ответственности за их содержание. Просьба не заливать файлы, защищенные авторскими правами, а также файлы нелегального содержания!