[ Сегодня идет свободное скачивание без начисления Download ]


Статистика раздачи
Нет
 
   
 
 
 
Джанго освобожденный / Django Unchained Страна: США
Жанр: Драма, Вестерн, Комедия, Приключения
Год выпуска: 2012
Продолжительность: 02:45:22
Перевод: Авторский (одноголосый закадровый) zamez
Перевод 2: Авторский (одноголосый закадровый) Дольский
Cубтитры: русские
Оригинальная аудиодорожка: нет
Режиссер: Квентин Тарантино / Quentin Tarantino
В ролях: Джейми Фокс, Кристоф Вальц, Леонардо ДиКаприо, Керри Вашингтон, Сэмюэл Л. Джексон, Джона Хилл, Эмбер Тэмблин, Уолтон Гоггинс, Джеймс Ремар, Дон Джонсон, Зои Белл, Роберт Кэрредин, Брюс Дерн, Майкл Паркс, Джеймс Руссо, Том Савини, Гэри Граббс, Франко Неро, Тодд Аллен, М. К. Гейни, Майкл Боуэн
Описание: Эксцентричный охотник за головами, также известный как «Дантист», промышляет отстрелом самых опасных преступников на Диком Западе. Работенка пыльная, и без надежного помощника ему не обойтись. Но как найти такого и желательно не очень дорогого? Беглый раб по имени Джанго — прекрасная кандидатура. Правда, у нового помощника свои мотивы — кое с чем надо разобраться…-[imdb]tt1853728[/imdb] [kp]586397[/kp]-Сэмпл
Качество видео: HDRip-AVC / BDRip 1080p
Формат видео: MKV
Видео: 1024 x 428, 23.976 fps, AVC, 1438 Кбит/сек
Аудио: AC-3 at 448 Кбит/сек,6 каналов, 48,0 КГц (zamez)
Аудио 2: AC-3 at 448 Кбит/сек,6 каналов, 48,0 КГц (Дольский) Внешняя
Формат субтитров: softsub (SRT)

MediaInfo

Общее
Полное имя :Dzhango.osvobozhdennyj.2012.HDRip-AVC.mkv
Формат : Matroska
Версия формата : Version 2
Размер файла : 2,18 Гбайт
Продолжительность : 2 ч. 45 м.
Общий поток : 1888 Кбит/сек
Дата кодирования : UTC 2013-03-26 17:25:10
Программа кодирования : mkvmerge v5.8.0 ('No Sleep / Pillow') built on Sep 2 2012 15:37:04
Библиотека кодирования : libebml v1.2.3 + libmatroska v1.3.0
Видео
Идентификатор : 1
Формат : AVC
Формат/Информация : Advanced Video Codec
Профиль формата : [email protected]
Параметр CABAC формата : Да
Параметр ReFrames формата : 11 кадров
Идентификатор кодека : V_MPEG4/ISO/AVC
Продолжительность : 2 ч. 45 м.
Битрейт : 1438 Кбит/сек
Ширина : 1024 пикселя
Высота : 428 пикселей
Соотношение сторон : 2,40:1
Режим частоты кадров : Постоянный
Частота кадров : 23,976 кадра/сек
Цветовое пространство : YUV
Субдискретизация насыщенности : 4:2:0
Битовая глубина : 8 бит
Тип развёртки : Прогрессивная
Бит/(Пиксели*Кадры) : 0.137
Размер потока : 1,62 Гбайт (74%)
Библиотека кодирования : x264 core 130 r2273 b3065e6
Настройки программы : cabac=1 / ref=11 / deblock=1:-3:-2 / analyse=0x3:0x133 / me=umh / subme=10 / psy=1 / psy_rd=1.05:0.10 / mixed_ref=1 / me_range=24 / chroma_me=1 / trellis=2 / 8x8dct=1 / cqm=0 / deadzone=21,11 / fast_pskip=0 / chroma_qp_offset=-3 / threads=12 / lookahead_threads=2 / sliced_threads=0 / nr=0 / decimate=1 / interlaced=0 / bluray_compat=0 / constrained_intra=0 / bframes=9 / b_pyramid=2 / b_adapt=2 / b_bias=0 / direct=3 / weightb=1 / open_gop=0 / weightp=2 / keyint=240 / keyint_min=23 / scenecut=40 / intra_refresh=0 / rc=2pass / mbtree=0 / bitrate=1438 / ratetol=1.0 / qcomp=0.60 / qpmin=0 / qpmax=69 / qpstep=4 / cplxblur=20.0 / qblur=0.5 / ip_ratio=1.40 / pb_ratio=1.30 / aq=1:1.00
Язык : English
Default : Да
Forced : Нет
Аудио
Идентификатор : 2
Формат : AC-3
Формат/Информация : Audio Coding 3
Расширение режима : CM (complete main)
Параметр Endianness формата : Big
Идентификатор кодека : A_AC3
Продолжительность : 2 ч. 45 м.
Вид битрейта : Постоянный
Битрейт : 448 Кбит/сек
Каналы : 6 каналов
Расположение каналов : Front: L C R, Side: L R, LFE
Частота : 48,0 КГц
Битовая глубина : 16 бит
Метод сжатия : С потерями
Размер потока : 530 Мбайт (24%)
Заголовок : Zamez
Язык : Russian
Default : Нет
Forced : Нет
Текст
Идентификатор : 3
Формат : UTF-8
Идентификатор кодека : S_TEXT/UTF8
Идентификатор кодека/Информация : UTF-8 Plain Text
Язык : Russian
Default : Нет
Forced : Нет
Меню
00:00:00.000 : en:00:00:00.000
00:03:36.466 : en:00:03:36.466
00:12:47.934 : en:00:12:47.934
00:18:49.420 : en:00:18:49.420
00:26:48.273 : en:00:26:48.273
00:31:44.528 : en:00:31:44.528
00:40:27.133 : en:00:40:27.133
00:46:05.513 : en:00:46:05.513
00:52:36.862 : en:00:52:36.862
00:58:12.823 : en:00:58:12.823
01:02:20.320 : en:01:02:20.320
01:12:13.496 : en:01:12:13.496
01:18:35.794 : en:01:18:35.794
01:26:08.038 : en:01:26:08.038
01:34:49.642 : en:01:34:49.642
01:40:52.380 : en:01:40:52.380
01:45:34.036 : en:01:45:34.036
01:50:01.094 : en:01:50:01.094
01:55:03.980 : en:01:55:03.980
02:03:54.969 : en:02:03:54.969
02:08:14.103 : en:02:08:14.103
02:14:14.380 : en:02:14:14.380
02:17:28.991 : en:02:17:28.991
02:22:32.544 : en:02:22:32.544
02:26:28.530 : en:02:26:28.530
02:33:00.463 : en:02:33:00.463
02:35:41.999 : en:02:35:41.999
02:41:30.931 : en:02:41:30.931

Скриншоты

[Цитировать]

Топик был перенесен из форума Новинки кинопроката в форум Вестерн
Henkok



Показать сообщения:    

Текущее время: 05-Дек 15:32

Часовой пояс: UTC + 3


Вы не можете начинать темы
Вы не можете отвечать на сообщения
Вы не можете редактировать свои сообщения
Вы не можете удалять свои сообщения
Вы не можете голосовать в опросах
Вы не можете прикреплять файлы к сообщениям
Вы не можете скачивать файлы

!ВНИМАНИЕ!
Сайт не предоставляет электронные версии произведений, а занимается лишь коллекционированием и каталогизацией ссылок, присылаемых и публикуемых на форуме нашими читателями. Если вы являетесь правообладателем какого-либо представленного материала и не желаете, чтобы ссылка на него находилась в нашем каталоге, свяжитесь с нами, и мы незамедлительно удалим ее. Файлы для обмена на трекере предоставлены пользователями сайта, и администрация не несет ответственности за их содержание. Просьба не заливать файлы, защищенные авторскими правами, а также файлы нелегального содержания!