[ Сегодня идет свободное скачивание без начисления Download ]


Статистика раздачи
Нет
 
   
 
Top  
 
 
-Гамбит / Gambit (2012) HDRip-«Искусная подделка.
Идеальный план»

Год выпуска: 2012
Страна: США
Производство: Air-Edel Associates, Crime Scene Pictures, Michael Lobell Productions
Жанр: Комедия, Криминал
Режиссер: Майкл Хоффман
Актеры: Колин Фёрт, Кэмерон Диаз, Алан Рикман, Стэнли Туччи, Клорис Личмен, Том Кортни, Сенем Темиз, Анна Скеллерн, Того Игава, Эрика ЛаРоуз
Перевод: Дублированный [чистый звук]
Субтитры: Отсутствуют
Описание фильма:
История лондонского любителя искусств, задумавшего обмануть богатого коллекционера и заставить его купить фальшивую картину Моне. Для этого он договаривается с разбитной девахой из Техаса. Героиня не имеет никакого отношения к искусству — она работает на родео. Однако она будет выдавать себя за женщину, чей отец раздобыл картину в конце Второй мировой войны.
Дата мировой премьеры: 7 ноября 2012
Дата российской премьеры: 7 марта 2013, «West»
Дата выхода DVD релиза: Нет информации
Продолжительность: 01:29:10
Качество видео: HDRip
Формат: AVI
Видео кодек: XviD
Аудио кодек: AC-3
Видео: 720x304 (2,35:1), 23.98 fps, XviD build 50 ~1742 Kbps avg, 0.332 bit/pixel
Аудио: 48000 Hz, 6 ch, ~448 kbps avg

MediaInfo:

Формат : AVI
Формат/Информация : Audio Video Interleave
Размер файла : 1,37 Гбайт
Продолжительность : 1 ч. 29 м.
Общий поток : 2199 Кбит/сек
Программа кодирования : VirtualDubMod 1.5.10.2 (build 2542/release)
Библиотека кодирования : VirtualDubMod build 2542/release
Видео
Идентификатор : 0
Формат : MPEG-4 Visual
Профиль формата : Advanced Simple@L5
Параметр BVOP формата : 2
Параметр QPel формата : Нет
Параметр GMC формата : Без точки перехода
Параметр матрицы формата : Default (MPEG)
Режим смешивания : Сжатый битовый поток
Идентификатор кодека : XVID
Идентификатор кодека/Подсказка : XviD
Продолжительность : 1 ч. 29 м.
Битрейт : 1742 Кбит/сек
Ширина : 720 пикселей
Высота : 304 пикселя
Соотношение сторон : 2,35:1
Частота кадров : 23,976 кадра/сек
Цветовое пространство : YUV
Субдискретизация насыщенности : 4:2:0
Битовая глубина : 8 бит
Тип развёртки : Прогрессивная
Метод сжатия : С потерями
Бит/(Пиксели*Кадры) : 0.332
Размер потока : 1,08 Гбайт (79%)
Библиотека кодирования : XviD 1.2.1 (UTC 2008-12-04)
Аудио
Идентификатор : 1
Формат : AC-3
Формат/Информация : Audio Coding 3
Расширение режима : CM (complete main)
Идентификатор кодека : 2000
Продолжительность : 1 ч. 29 м.
Вид битрейта : Постоянный
Битрейт : 448 Кбит/сек
Каналы : 6 каналов
Расположение каналов : Front: L C R, Side: L R, LFE
Частота : 48,0 КГц
Битовая глубина : 16 бит
Метод сжатия : С потерями
Размер потока : 286 Мбайт (20%)
Выравнивание : Разделение по промежуткам
Продолжительность промежутка : 42 мс. (1,00 видеокадр)
Время предзагрузки промежутка : 500 мс.
Скриншоты: Время раздачи: 24/7. До первых 5 скачавших.

[Цитировать]

Топик был перенесен из форума Новинки кинопроката в форум Комедия
Henkok



Показать сообщения:    

Текущее время: 22-Янв 15:17

Часовой пояс: UTC + 3


Вы не можете начинать темы
Вы не можете отвечать на сообщения
Вы не можете редактировать свои сообщения
Вы не можете удалять свои сообщения
Вы не можете голосовать в опросах
Вы не можете прикреплять файлы к сообщениям
Вы не можете скачивать файлы

!ВНИМАНИЕ!
Сайт не предоставляет электронные версии произведений, а занимается лишь коллекционированием и каталогизацией ссылок, присылаемых и публикуемых на форуме нашими читателями. Если вы являетесь правообладателем какого-либо представленного материала и не желаете, чтобы ссылка на него находилась в нашем каталоге, свяжитесь с нами, и мы незамедлительно удалим ее. Файлы для обмена на трекере предоставлены пользователями сайта, и администрация не несет ответственности за их содержание. Просьба не заливать файлы, защищенные авторскими правами, а также файлы нелегального содержания!