[ Сегодня идет свободное скачивание без начисления Download ]


Статистика раздачи
Нет
 
   
 
Top  
 
 
Филадельфийский эксперимент / The Philadelphia Experiment«An adventure beyond time. The experiment that should never have happened 41 years ago... Is still going on.»
Год выпуска: 1984
Страна: США
Производство: New world pictures
Жанр: Фантастика, фэнтези, драма
Режиссер: Стюарт Рэффил
В ролях: Майкл Паре, Нэнси Аллен, Эрик Кристмас, Бобби Ди Чикко, Луиз Лэтэм, Кин Холлидэй, Джо Дорси, Майкл Карри, Стивен Тоболовски, Гэри Брокетт
Перевод: Профессиональный (полное дублирование)
Субтитры: Отсутствуют
Описание: Вторая мировая война. Испытывается оборудование, которое делает американские военные корабли невидимыми для радаров противника. Во время этих экспериментов исчезает один боевой корабль, а два моряка оказываются заброшенными в 1984 год.

Качество: DVDRip
Продолжительность: 01:33:35
Формат: AVI
Видео кодек: XviD
Аудио кодек: AC3
Видео: 720 x 384 (1.875), 23.976 fps, ~1900 kbps avg, 0.287 bit/pixel
Аудио: 48 kHz, Audio Coding 3 Dolby Digital, 2 ch (Front: L, R), ~192 kbps avg

Media Info

Complete name                    : D:\фильмы\Filadeljfijskij.jeksperiment.1984.DVDRip.avi
Format                           : AVI
Format/Info                      : Audio Video Interleave
File size                        : 1.37 GiB
Duration                         : 1h 33mn
Overall bit rate                 : 2 101 Kbps
Writing application              : VirtualDubModRus 1.5.10.2 (build 2540/release)
Writing library                  : VirtualDubMod build 2540/release
Video
ID                               : 0
Format                           : MPEG-4 Visual
Format profile                   : Advanced [email protected]
Format settings, BVOP            : 2
Format settings, QPel            : No
Format settings, GMC             : No warppoints
Format settings, Matrix          : Default (MPEG)
Codec ID                         : XVID
Codec ID/Hint                    : XviD
Duration                         : 1h 33mn
Bit rate                         : 1 900 Kbps
Width                            : 720 pixels
Height                           : 384 pixels
Display aspect ratio             : 1.875
Frame rate                       : 23.976 fps
Color space                      : YUV
Chroma subsampling               : 4:2:0
Bit depth                        : 8 bits
Scan type                        : Progressive
Compression mode                 : Lossy
Bits/(Pixel*Frame)               : 0.287
Stream size                      : 1.24 GiB (90%)
Writing library                  : XviD 64
Audio
ID                               : 1
Format                           : AC-3
Format/Info                      : Audio Coding 3
Mode extension                   : CM (complete main)
Codec ID                         : 2000
Duration                         : 1h 33mn
Bit rate mode                    : Constant
Bit rate                         : 192 Kbps
Channel(s)                       : 2 channels
Channel positions                : Front: L R
Sampling rate                    : 48.0 KHz
Bit depth                        : 16 bits
Compression mode                 : Lossy
Stream size                      : 129 MiB (9%)
Alignment                        : Split accross interleaves
Interleave, duration             : 42 ms (1.00 video frame)
Interleave, preload duration     : 500 ms

Скриншоты

[Цитировать]



Показать сообщения:    

Текущее время: 06-Дек 19:10

Часовой пояс: UTC + 3


Вы не можете начинать темы
Вы не можете отвечать на сообщения
Вы не можете редактировать свои сообщения
Вы не можете удалять свои сообщения
Вы не можете голосовать в опросах
Вы не можете прикреплять файлы к сообщениям
Вы не можете скачивать файлы

!ВНИМАНИЕ!
Сайт не предоставляет электронные версии произведений, а занимается лишь коллекционированием и каталогизацией ссылок, присылаемых и публикуемых на форуме нашими читателями. Если вы являетесь правообладателем какого-либо представленного материала и не желаете, чтобы ссылка на него находилась в нашем каталоге, свяжитесь с нами, и мы незамедлительно удалим ее. Файлы для обмена на трекере предоставлены пользователями сайта, и администрация не несет ответственности за их содержание. Просьба не заливать файлы, защищенные авторскими правами, а также файлы нелегального содержания!