[ Сегодня идет свободное скачивание без начисления Download ]


Статистика раздачи
Нет
 
   
 
Top  
 
 
-Гамбит / Gambit (2012) BDRip- Русское название: Гамбит
Оригинальное название: Gambit
Год выпуска: 2012
Производство: США - Air-Edel Associates, Crime Scene Pictures, Michael Lobell Productions
Жанр: Комедия, Криминал
Перевод: Дублированный |Line|
Субтитры: Вшитые отключаемые
Язык субтитров: Английский
Режиссер: Майкл Хоффман / Michael Hoffman
Актеры: Колин Ферт, Кэмерон Диаз, Алан Рикман, Стэнли Туччи, Клорис Личмен, Том Кортни, Сенем Темиз, Анна Скеллерн, Того Игава, Эрика ЛаРоуз, Грег Беннетт, Джерард Хоран, Чилли Мо, Сара Голдберг, Екатерина Ботциу, Сильвия Крастан, Грэхэм Керри, Танрох Ишида, Симона Либман, Масаси Фудзимото, Гари Свон, Мартин Пул, Филип Дехэни, Фрэнк Стоун, Майк Ноубл, Мартин Мур, Спенсер Камминс, Кейд Борек, Люк Борек
Описание фильма:
История лондонского любителя искусств, задумавшего обмануть богатого коллекционера и заставить его купить фальшивую картину Моне. Для этого он договаривается с разбитной девахой из Техаса. Героиня не имеет никакого отношения к искусству — она работает на родео. Однако она будет выдавать себя за женщину, чей отец раздобыл картину в конце Второй мировой войны.- -Продолжительность: 01:29:10
Качество видео: BDRip 1080p
Видеокодек: MPEG-4 AVC/H.264
Видео: H.264, 10.4 Мбит/с, 1920x816
Аудио #1: Русский: AC3, 5.1, 448 Кбит/с, 48 kHz, 16 bit - дублированный
Аудио #2: Английский: DTS, 5.1, 1536 Кбит/с, 48 kHz, 24 bit

Сохранены оригинальные чаптеры как на Blu-Ray

Интересно

• Дженнифер Энистон рассматривалась на роль, которую в итоге получила Кэмерон Диаз.
• Хью Грант, Сандра Буллок, Бен Кингсли изначально были приняты в проект на роли Гарри Дина, Пи Джей Пазновски и лорда Лайонела соответственно.

Рецензия, отзыв о фильме:

Ещё один обиженный сотрудник
Блестящая искрометная комедия Джоэла и Итана Коэнов с прекрасно выдержанным типичным британским юмором. Хотя сюжет фильма, в общем, не оригинален — еще один обиженный на шефа сотрудник изыскивает оригинальный план мести, — смотрится он на одном дыхании и изобилует множеством смешных ситуаций.
Может показаться, что «Гамбит» слегка перегружен длинными диалогами, но после просмотра убеждаешься, что это абсолютно оправданно. Именно через них характеры персонажей раскрываются с весьма неожиданных, и снова-таки, смешных сторон.
Кроме хорошей сценарной проработки диалогов, последние и воплощаются великолепно благодаря незаурядной актерской игре. Таким мастерам, как Колин Ферт и Алан Рикман, не требуется многого, чтобы превратить практически любой эпизод со своим участием в уморительную, забавную, но в то же время удивительно стильную и даже аристократичную комедийную сцену. Что и тот, и другой с успехом и делают. Как раз тот случай, что не столько важно «о чём», а важно — «как».
И что еще важнее, и Рикман, и Ферт заражают своей энергией, веселостью и профессиональным отношением к делу других. В такой кампании даже Кэмерон Диаз не отстала и сыграла свою роль просто на ура. Что она в своих последних работах делала, к сожалению, не всегда. Не понимаю только, почему и в этих картинах, и в «Гамбите» операторы с непонятным упорством хоть раз да фокусируют камеру крупным планом на всех ее выпуклых частях тела, застрахованных и нет? Неужели у Кэмерон не осталось уже никаких других аргументов, чтобы привлечь к себе зрителя. Как показывает тот же «Гамбит», потенциал Диаз еще далеко не исчерпан. В этой картине Кэмерон в своей стихии: этакая лихая, горячая, строптивая и искренняя ковбойка-фермерша, кстати, совсем не глупая. Один из самых идеальных думаю, для нее образов.
Хорош в своей роли и Стэнли Туччи. Впрочем, этот актер редко играет плохо, возможно, не всегда эффектно. Хорошие музыкальные композиции подобрал для фильма Рольф Кент — такие же веселые и зажигательные, как и вся лента в целом. Словом, отличный фильм, отличные впечатления.
8 из 10

MediaInfo:

Общее
Уникальный идентификатор : 184948445819149252787304837314096231122 (0x8B23C66635B654469B9C46E0F7E972D2)
Полное имя : D:\Video\Gambit.2012.BDRip.1080p.ac3.dts.Rus.Eng.mkv
Формат : Matroska
Версия формата : Version 2
Размер файла : 7,72 Гбайт
Продолжительность : 1 ч. 29 м.
Общий поток : 12,4 Мбит/сек
Дата кодирования : UTC 2013-03-27 18:29:38
Программа кодирования : mkvmerge v5.4.0 ('Piper') built on Mar 10 2012 13:34:39
Библиотека кодирования : libebml v1.2.3 + libmatroska v1.3.0
Видео
Идентификатор : 1
Формат : AVC
Формат/Информация : Advanced Video Codec
Профиль формата : High@L4.1
Параметр CABAC формата : Да
Параметр ReFrames формата : 5 кадров
Идентификатор кодека : V_MPEG4/ISO/AVC
Продолжительность : 1 ч. 29 м.
Битрейт : 10,4 Мбит/сек
Ширина : 1920 пикселей
Высота : 816 пикселей
Соотношение сторон : 2,35:1
Частота кадров : 23,976 кадра/сек
Цветовое пространство : YUV
Субдискретизация насыщенности : 4:2:0
Битовая глубина : 8 бит
Тип развёртки : Прогрессивная
Бит/(Пиксели*Кадры) : 0.278
Размер потока : 6,35 Гбайт (82%)
Библиотека кодирования : x264 core 120 r2164 da19765
Настройки программы : cabac=1 / ref=5 / deblock=1:0:0 / analyse=0x3:0x113 / me=umh / subme=9 / psy=1 / psy_rd=1.00:0.00 / mixed_ref=1 / me_range=48 / chroma_me=1 / trellis=2 / 8x8dct=1 / cqm=0 / deadzone=21,11 / fast_pskip=1 / chroma_qp_offset=-2 / threads=6 / sliced_threads=0 / nr=200 / decimate=1 / interlaced=0 / bluray_compat=0 / constrained_intra=0 / bframes=8 / b_pyramid=2 / b_adapt=1 / b_bias=0 / direct=1 / weightb=1 / open_gop=0 / weightp=2 / keyint=240 / keyint_min=23 / scenecut=40 / intra_refresh=0 / rc_lookahead=40 / rc=2pass / mbtree=1 / bitrate=10431 / ratetol=1.0 / qcomp=0.60 / qpmin=0 / qpmax=69 / qpstep=4 / cplxblur=20.0 / qblur=0.5 / vbv_maxrate=31250 / vbv_bufsize=31250 / nal_hrd=none / ip_ratio=1.40 / aq=1:1.00
Default : Да
Forced : Нет
Аудио #1
Идентификатор : 2
Формат : AC-3
Формат/Информация : Audio Coding 3
Расширение режима : CM (complete main)
Идентификатор кодека : A_AC3
Продолжительность : 1 ч. 29 м.
Вид битрейта : Постоянный
Битрейт : 448 Кбит/сек
Каналы : 6 каналов
Расположение каналов : Front: L C R, Side: L R, LFE
Частота : 48,0 КГц
Битовая глубина : 16 бит
Метод сжатия : С потерями
Размер потока : 286 Мбайт (4%)
Заголовок : Russian DUB Line
Язык : Russian
Default : Да
Forced : Нет
Аудио #2
Идентификатор : 3
Формат : DTS
Формат/Информация : Digital Theater Systems
Идентификатор кодека : A_DTS
Продолжительность : 1 ч. 29 м.
Вид битрейта : Постоянный
Битрейт : 1510 Кбит/сек
Каналы : 6 каналов
Расположение каналов : Front: L C R, Side: L R, LFE
Частота : 48,0 КГц
Битовая глубина : 24 бит
Метод сжатия : С потерями
Размер потока : 963 Мбайт (12%)
Заголовок : DTS 5.1 @ 1536 kbps
Язык : English
Default : Нет
Forced : Нет
Текст
Идентификатор : 4
Формат : UTF-8
Идентификатор кодека : S_TEXT/UTF8
Идентификатор кодека/Информация : UTF-8 Plain Text
Заголовок : English Subtitles
Язык : English
Default : Нет
Forced : Нет
Меню
00:00:00.000 : en:00:00:00.000
00:06:52.162 : en:00:06:52.162
00:14:35.291 : en:00:14:35.291
00:21:59.860 : en:00:21:59.860
00:30:34.791 : en:00:30:34.791
00:36:29.062 : en:00:36:29.062
00:44:29.000 : en:00:44:29.000
00:52:37.738 : en:00:52:37.738
01:02:10.018 : en:01:02:10.018
01:11:15.938 : en:01:11:15.938
01:18:32.166 : en:01:18:32.166
01:23:34.009 : en:01:23:34.009
Скриншоты:


Время раздачи: с 10:00 до 20:00 (GMT+2) - до 15 скачавших

[Цитировать]

Топик был перенесен из форума Новинки кинопроката (HD Video) в форум Зарубежное кино (HD Video)
Bootch



Показать сообщения:    

Текущее время: 08-Дек 23:13

Часовой пояс: UTC + 3


Вы не можете начинать темы
Вы не можете отвечать на сообщения
Вы не можете редактировать свои сообщения
Вы не можете удалять свои сообщения
Вы не можете голосовать в опросах
Вы не можете прикреплять файлы к сообщениям
Вы не можете скачивать файлы

!ВНИМАНИЕ!
Сайт не предоставляет электронные версии произведений, а занимается лишь коллекционированием и каталогизацией ссылок, присылаемых и публикуемых на форуме нашими читателями. Если вы являетесь правообладателем какого-либо представленного материала и не желаете, чтобы ссылка на него находилась в нашем каталоге, свяжитесь с нами, и мы незамедлительно удалим ее. Файлы для обмена на трекере предоставлены пользователями сайта, и администрация не несет ответственности за их содержание. Просьба не заливать файлы, защищенные авторскими правами, а также файлы нелегального содержания!