[ Сегодня идет свободное скачивание без начисления Download ]


Статистика раздачи
Нет
 
   
 
Top  
 
 
P R E S E N T SХранители снов / Rise of the Guardians- Страна: США
Жанр: мультфильм, фэнтези, приключения, семейный
Продолжительность: 01:37:11
Год выпуска: 2012
Перевод: Профессиональный (полное дублирование)
Субтитры: есть-Режиссёр: Питер Рэмси / Peter Ramsey
Роли озвучивали: Крис Пайн, Алек Болдуин, Джуд Лоу, Айла Фишер, Хью Джекман, Дакота Гойо, Хамани Гриффин, Камиль МакФедден, Джордж Грив, Эмили Нордвинд, Джейкоб Бертран, Оливия Маттингли, Доминик Грунд, Райан Крего, Эйприл Стрюбинг...
Роли дублировали: Тимур Родригез, Александр Новиков, Сергей Смирнов, Кристина Асмус, Даниил Эльдаров, Анна Денисова, Василиса Эльдарова- | | -Описание: Когда злой дух Кромешник посягает на самое дорогое - детские мечты, Северянин, Ледяной Джек, Кролик, Зубная Фея и Песочный Человек впервые объединяются, чтобы создать команду Хранителей снов...-Доп. информация: Полноформатный рип 1152х648 (1.778:1) сделан с Blu-Ray диска Rise of the Guardians 2012 BluRay 1080p AVC TrueHD7.1-CHDBits.-Сэмпл/Sample (54.1 MB, 1 минута)-Качество: BDRip-AVC
Формат: MKV
Видео: 1152x648 (1.778:1), 23,976 fps, ~4305 kbps avg, 0.241 bit/pixel
Аудио #1: Русский, 48.0 kHz, AC3, 6 ch, 448 Kbps - Дубляж
Аудио #2: Украинский, 48.0 kHz, AC3, 6 ch, 448 Kbps - Дубляж
Аудио #3: English, 48.0 kHz, AC3, 6 ch, 448 Kbps - Original
Аудио #4: English, 48.0 kHz, AC3, 2 ch, 192 Kbps - Commentary
Субтитры: Русские (полные, надписи), Украинские (полные, надписи), English, English (SDH), English [Commentary]
Навигация по главам: есть (16 не именованных глав)

MediaInfo / x264Log

x264Log

raw [info]: 1152x648p 1:1 @ 24000/1001 fps (cfr)
x264 [info]: using SAR=1/1
x264 [info]: using cpu capabilities: MMX2 SSE2Fast SSSE3 SSE4.2
x264 [info]: profile High, level 4.1
x264 [info]: frame I:1209 Avg QP:15.17 size:112442 PSNR Mean Y:47.56 U:50.58 V:50.66 Avg:48.34 Global:47.76
x264 [info]: frame P:35476 Avg QP:16.99 size: 41280 PSNR Mean Y:46.37 U:49.62 V:49.65 Avg:47.18 Global:46.47
x264 [info]: frame B:103140 Avg QP:20.11 size: 14910 PSNR Mean Y:45.62 U:49.33 V:49.36 Avg:46.50 Global:45.65
x264 [info]: consecutive B-frames: 3.4% 5.6% 12.5% 28.5% 20.1% 24.3% 2.2% 0.5% 0.4% 0.3% 0.4% 0.3% 1.4%
x264 [info]: mb I I16..4: 4.1% 73.4% 22.4%
x264 [info]: mb P I16..4: 0.9% 18.1% 3.6% P16..4: 25.1% 28.6% 12.3% 2.5% 0.3% skip: 8.6%
x264 [info]: mb B I16..4: 0.2% 3.4% 0.7% B16..8: 31.0% 21.0% 3.5% direct: 4.3% skip:35.9% L0:39.3% L1:44.3% BI:16.4%
x264 [info]: 8x8 transform intra:79.3% inter:56.8%
x264 [info]: coded y,uvDC,uvAC intra: 91.8% 82.4% 60.8% inter: 20.7% 14.1% 3.9%
x264 [info]: i16 v,h,dc,p: 5% 7% 5% 83%
x264 [info]: i8 v,h,dc,ddl,ddr,vr,hd,vl,hu: 12% 10% 7% 9% 12% 12% 13% 12% 15%
x264 [info]: i4 v,h,dc,ddl,ddr,vr,hd,vl,hu: 12% 7% 5% 9% 17% 14% 14% 10% 13%
x264 [info]: i8c dc,h,v,p: 35% 28% 18% 18%
x264 [info]: Weighted P-Frames: Y:2.0% UV:1.2%
x264 [info]: ref P L0: 55.3% 9.7% 16.0% 5.6% 4.1% 2.9% 2.4% 1.4% 1.2% 1.2% 0.2% 0.0%
x264 [info]: ref B L0: 80.9% 9.4% 4.2% 1.9% 1.3% 1.0% 0.8% 0.4% 0.2%
x264 [info]: ref B L1: 94.0% 6.0%
x264 [info]: SSIM Mean Y:0.9862590 (18.620db)
x264 [info]: PSNR Mean Y:45.829 U:49.414 V:49.446 Avg:46.690 Global:45.859 kb/s:4304.93
encoded 139825 frames, 3.13 fps, 4304.93 kb/s
General
Unique ID : 177492661934114970265571802320258540087 (0x8587D7DF6A38ADCD9F52620B77852237)
Complete name : Rise.Of.The.Guardians.2012.BDRip.648p.dfcbit.mkv
Format : Matroska
Format version : Version 2
File size : 3.97 GiB
Duration : 1h 37mn
Overall bit rate : 5 844 Kbps
Encoded date : UTC 2013-03-22 19:14:37
Writing application : mkvmerge v4.0.0 ('The Stars were mine') built on Jun 6 2010 16:18:42
Writing library : libebml v1.0.0 + libmatroska v1.0.0
Video
ID : 1
Format : AVC
Format/Info : Advanced Video Codec
Format profile : High@L4.1
Format settings, CABAC : Yes
Format settings, ReFrames : 10 frames
Codec ID : V_MPEG4/ISO/AVC
Duration : 1h 37mn
Bit rate : 4 305 Kbps
Width : 1 152 pixels
Height : 648 pixels
Display aspect ratio : 16:9
Frame rate : 23.976 fps
Color space : YUV
Chroma subsampling : 4:2:0
Bit depth : 8 bits
Scan type : Progressive
Bits/(Pixel*Frame) : 0.241
Stream size : 2.92 GiB (72%)
Title : NTSC, 1152x648 (1.778:1), BDRip - tRuAVC & Multfilmy [DFCbit]
Writing library : x264 core 130 r2273kMod b3065e6
Encoding settings : cabac=1 / ref=10 / deblock=1:-2:-1 / analyse=0x3:0x133 / me=umh / subme=11 / psy=1 / fade_compensate=0.00 / psy_rd=0.60:0.00 / mixed_ref=1 / me_range=32 / chroma_me=1 / trellis=2 / 8x8dct=1 / cqm=0 / deadzone=21,11 / fast_pskip=0 / chroma_qp_offset=-2 / threads=6 / lookahead_threads=1 / sliced_threads=0 / nr=0 / decimate=1 / interlaced=0 / bluray_compat=0 / constrained_intra=0 / bframes=12 / b_pyramid=2 / b_adapt=2 / b_bias=0 / direct=1 / weightb=1 / open_gop=0 / weightp=2 / keyint=250 / keyint_min=23 / scenecut=40 / intra_refresh=0 / rc_lookahead=70 / rc=crf / mbtree=0 / crf=17.9100 / qcomp=0.80 / qpmin=0 / qpmax=69 / qpstep=4 / vbv_maxrate=50000 / vbv_bufsize=62500 / crf_max=0.0 / nal_hrd=none / ip_ratio=1.40 / pb_ratio=1.30 / aq=3:0.90
Language : English
Default : Yes
Forced : No
Color primaries : BT.709-5, BT.1361, IEC 61966-2-4, SMPTE RP177
Transfer characteristics : BT.709-5, BT.1361
Matrix coefficients : BT.709-5, BT.1361, IEC 61966-2-4 709, SMPTE RP177
Audio #1
ID : 2
Format : AC-3
Format/Info : Audio Coding 3
Mode extension : CM (complete main)
Codec ID : A_AC3
Duration : 1h 37mn
Bit rate mode : Constant
Bit rate : 448 Kbps
Channel(s) : 6 channels
Channel positions : Front: L C R, Side: L R, LFE
Sampling rate : 48.0 KHz
Bit depth : 16 bits
Compression mode : Lossy
Stream size : 311 MiB (8%)
Title : AC3, 6 ch, 48 kHz, 448 kbps, Dubbing
Language : Russian
Default : Yes
Forced : No
Audio #2
ID : 3
Format : AC-3
Format/Info : Audio Coding 3
Mode extension : CM (complete main)
Codec ID : A_AC3
Duration : 1h 37mn
Bit rate mode : Constant
Bit rate : 448 Kbps
Channel(s) : 6 channels
Channel positions : Front: L C R, Side: L R, LFE
Sampling rate : 48.0 KHz
Bit depth : 16 bits
Compression mode : Lossy
Stream size : 311 MiB (8%)
Title : AC3, 6 ch, 48 kHz, 448 kbps, Dubbing
Language : Ukrainian
Default : No
Forced : No
Audio #3
ID : 4
Format : AC-3
Format/Info : Audio Coding 3
Mode extension : CM (complete main)
Codec ID : A_AC3
Duration : 1h 37mn
Bit rate mode : Constant
Bit rate : 448 Kbps
Channel(s) : 6 channels
Channel positions : Front: L C R, Side: L R, LFE
Sampling rate : 48.0 KHz
Bit depth : 16 bits
Compression mode : Lossy
Stream size : 311 MiB (8%)
Title : AC3, 6 ch, 48 kHz, 448 kbps, Original
Language : English
Default : No
Forced : No
Audio #4
ID : 5
Format : AC-3
Format/Info : Audio Coding 3
Mode extension : CM (complete main)
Codec ID : A_AC3
Duration : 1h 37mn
Bit rate mode : Constant
Bit rate : 192 Kbps
Channel(s) : 2 channels
Channel positions : Front: L R
Sampling rate : 48.0 KHz
Bit depth : 16 bits
Compression mode : Lossy
Stream size : 133 MiB (3%)
Title : AC3, 2 ch, 48 kHz, 192 kbps, Commentary
Language : English
Default : No
Forced : No
Text #1
ID : 6
Format : UTF-8
Codec ID : S_TEXT/UTF8
Codec ID/Info : UTF-8 Plain Text
Title : SRT, Full
Language : Russian
Default : No
Forced : No
Text #2
ID : 7
Format : UTF-8
Codec ID : S_TEXT/UTF8
Codec ID/Info : UTF-8 Plain Text
Title : SRT, Captions
Language : Russian
Default : No
Forced : No
Text #3
ID : 8
Format : UTF-8
Codec ID : S_TEXT/UTF8
Codec ID/Info : UTF-8 Plain Text
Title : SRT, Full
Language : Ukrainian
Default : No
Forced : No
Text #4
ID : 9
Format : UTF-8
Codec ID : S_TEXT/UTF8
Codec ID/Info : UTF-8 Plain Text
Title : SRT, Captions
Language : Ukrainian
Default : No
Forced : No
Text #5
ID : 10
Format : UTF-8
Codec ID : S_TEXT/UTF8
Codec ID/Info : UTF-8 Plain Text
Title : SRT, Full
Language : English
Default : No
Forced : No
Text #6
ID : 11
Format : UTF-8
Codec ID : S_TEXT/UTF8
Codec ID/Info : UTF-8 Plain Text
Title : SRT, (SDH)
Language : English
Default : No
Forced : No
Text #7
ID : 12
Format : UTF-8
Codec ID : S_TEXT/UTF8
Codec ID/Info : UTF-8 Plain Text
Title : SRT, Commentary
Language : English
Default : No
Forced : No
Menu
00:00:00.000 : en:Chapter 1
00:03:51.481 : en:Chapter 2
00:10:34.843 : en:Chapter 3
00:16:17.643 : en:Chapter 4
00:24:49.363 : en:Chapter 5
00:30:38.378 : en:Chapter 6
00:36:38.947 : en:Chapter 7
00:43:05.166 : en:Chapter 8
00:50:22.311 : en:Chapter 9
00:58:09.611 : en:Chapter 10
01:03:55.331 : en:Chapter 11
01:09:12.815 : en:Chapter 12
01:14:03.189 : en:Chapter 13
01:20:44.923 : en:Chapter 14
01:24:51.503 : en:Chapter 15
01:28:33.892 : en:Chapter 16

Скриншоты

Скриншот с названием мультфильма
--BDRip-AVC


Source Blu-Ray

Bitrate Viewer

[Цитировать]



Показать сообщения:    

Текущее время: 10-Дек 15:38

Часовой пояс: UTC + 3


Вы не можете начинать темы
Вы не можете отвечать на сообщения
Вы не можете редактировать свои сообщения
Вы не можете удалять свои сообщения
Вы не можете голосовать в опросах
Вы не можете прикреплять файлы к сообщениям
Вы не можете скачивать файлы

!ВНИМАНИЕ!
Сайт не предоставляет электронные версии произведений, а занимается лишь коллекционированием и каталогизацией ссылок, присылаемых и публикуемых на форуме нашими читателями. Если вы являетесь правообладателем какого-либо представленного материала и не желаете, чтобы ссылка на него находилась в нашем каталоге, свяжитесь с нами, и мы незамедлительно удалим ее. Файлы для обмена на трекере предоставлены пользователями сайта, и администрация не несет ответственности за их содержание. Просьба не заливать файлы, защищенные авторскими правами, а также файлы нелегального содержания!