[ Сегодня идет свободное скачивание без начисления Download ]


Статистика раздачи
Нет
 
   
 
Top  
 
 
P R E S E N T SРальф / Wreck-It Ralph- Страна: США
Жанр: мультфильм, фэнтези, комедия, приключения, семейный
Продолжительность: 01:41:13
Год выпуска: 2012
Перевод: Профессиональный (полное дублирование)
Субтитры: есть-Режиссёр: Рич Мур / Rich Moore
Роли озвучивали: Джон Си Райли, Джек МакБрайер, Сара Силверман, Джейн Линч, Алан Тьюдик, Минди Калинг, Джо Ло Трульо, Эд О'Нил, Деннис Хейсбёрт, Эди МакКлёрг, Рэймонд С. Перси, Джесс Харнелл, Рэйчел Харрис, Рич Мур...
Роли дублировали: Станислав Дужников, Александр Гудков, Наталия Медведева, Регина Щукина, Валентин Морозов, Юлия Баранчук, Станислав Концевич, Александр Аравушкин, Алексей Макрецкий, Лидия Мельникова, Олег Куликович, Александр Лушин, Дмитрий Стрелков, Александр Ноткин, Олег Белов- | | -Описание: Ральф - второстепенный персонаж восьмибитной компьютерной игры, и ему надоело находиться в тени главного героя, мастера на все руки Феликса, который всегда появляется, чтобы «исправить» ситуацию! После тридцати лет добросовестной работы в роли злодея, в течение которых все похвалы выпадали на долю Феликса, Ральф больше не хочет быть плохим. Он решает отправиться в путешествие по аркадным играм разных жанров, чтобы доказать всем, что и он тоже может быть героем. На своем пути Ральф встречает героев разных игр - хладнокровную сержанта Калхун из игры Hero’s Duty, оберегающую планету от нашествия инопланетных захватчиков, и сладкую на вид, но острую на язычок Сластену фон Дю, чье существование в гоночном симуляторе Sugar Rush внезапно оказывается под угрозой. Наконец-то Ральфу выпадает шанс показать, что он умеет не только разрушать!...-Доп. информация: Полноформатный рип 1194х500 (2.388:1) сделан с Blu-Ray диска Wreck-It Ralph 2012 1080p Blu-ray AVC DTS-HD MA 5.1-PCH.-Сэмпл/Sample (26.0 MB, 1 минута)-Качество: BDRip-AVC
Формат: MKV
Видео: 1194x500 (2.388:1), 23,976 fps, ~2946 kbps avg, 0.207 bit/pixel
Аудио #1: Русский, 48.0 kHz, AC3, 6 ch, 448 Kbps - Дубляж
Аудио #2: Украинский, 48.0 kHz, AC3, 6 ch, 448 Kbps - Дубляж
Аудио #3: English, 48.0 kHz, AC3, 6 ch, 448 Kbps - Original
Субтитры: Русские (полные, надписи), Украинские (полные, надписи), English, English (SDH), French, Spanish
Навигация по главам: есть (16 именованных глав)

MediaInfo / x264Log

x264Log

raw [info]: 1194x500p 1:1 @ 24000/1001 fps (cfr)
x264 [info]: using SAR=1/1
x264 [info]: using cpu capabilities: MMX2 SSE2Fast SSSE3 SSE4.2
x264 [info]: profile High, level 4.1
x264 [info]: frame I:1360 Avg QP:14.47 size: 99318 PSNR Mean Y:48.14 U:50.20 V:49.67 Avg:48.64 Global:48.13
x264 [info]: frame P:36047 Avg QP:16.38 size: 28344 PSNR Mean Y:46.87 U:48.90 V:48.17 Avg:47.33 Global:46.69
x264 [info]: frame B:108211 Avg QP:19.98 size: 9982 PSNR Mean Y:46.25 U:48.50 V:47.61 Avg:46.72 Global:45.92
x264 [info]: consecutive B-frames: 3.4% 3.0% 9.7% 39.8% 17.0% 18.6% 2.9% 4.5% 0.4% 0.5% 0.3%
x264 [info]: mb I I16..4: 4.4% 60.6% 35.0%
x264 [info]: mb P I16..4: 1.3% 12.2% 4.5% P16..4: 23.4% 25.3% 11.0% 2.5% 0.3% skip:19.4%
x264 [info]: mb B I16..4: 0.3% 2.4% 0.8% B16..8: 24.3% 15.7% 3.2% direct: 3.7% skip:49.5% L0:40.4% L1:44.3% BI:15.3%
x264 [info]: 8x8 transform intra:67.0% inter:53.4%
x264 [info]: coded y,uvDC,uvAC intra: 82.8% 91.6% 79.7% inter: 14.8% 18.2% 8.9%
x264 [info]: i16 v,h,dc,p: 9% 19% 4% 67%
x264 [info]: i8 v,h,dc,ddl,ddr,vr,hd,vl,hu: 11% 13% 8% 9% 11% 10% 13% 10% 16%
x264 [info]: i4 v,h,dc,ddl,ddr,vr,hd,vl,hu: 22% 12% 5% 8% 12% 10% 11% 8% 11%
x264 [info]: i8c dc,h,v,p: 38% 28% 16% 18%
x264 [info]: Weighted P-Frames: Y:2.6% UV:1.9%
x264 [info]: ref P L0: 52.7% 8.2% 15.7% 6.4% 4.5% 3.8% 3.0% 2.0% 1.7% 1.8% 0.3% 0.0%
x264 [info]: ref B L0: 76.4% 10.4% 5.8% 2.4% 1.7% 1.3% 1.1% 0.6% 0.3%
x264 [info]: ref B L1: 92.8% 7.2%
x264 [info]: SSIM Mean Y:0.9893000 (19.706db)
x264 [info]: PSNR Mean Y:46.423 U:48.615 V:47.768 Avg:46.885 Global:46.115 kb/s:2946.50
encoded 145618 frames, 4.51 fps, 2946.49 kb/s
General
Unique ID : 197000764391667551424312915638013953093 (0x9434F7953C623F608F068C1CA37C8445)
Complete name : Wreck.It.Ralph.2012.BDRip.500p.dfcbit.mkv
Format : Matroska
Format version : Version 2
File size : 3.04 GiB
Duration : 1h 41mn
Overall bit rate : 4 293 Kbps
Encoded date : UTC 2013-03-26 18:28:01
Writing application : mkvmerge v4.0.0 ('The Stars were mine') built on Jun 6 2010 16:18:42
Writing library : libebml v1.0.0 + libmatroska v1.0.0
Video
ID : 1
Format : AVC
Format/Info : Advanced Video Codec
Format profile : High@L4.1
Format settings, CABAC : Yes
Format settings, ReFrames : 10 frames
Codec ID : V_MPEG4/ISO/AVC
Duration : 1h 41mn
Bit rate : 2 946 Kbps
Width : 1 194 pixels
Height : 500 pixels
Display aspect ratio : 2.40:1
Frame rate : 23.976 fps
Color space : YUV
Chroma subsampling : 4:2:0
Bit depth : 8 bits
Scan type : Progressive
Bits/(Pixel*Frame) : 0.207
Stream size : 2.08 GiB (67%)
Title : NTSC, 1194x500 (2.388:1), BDRip - tRuAVC & Multfilmy [DFCbit]
Writing library : x264 core 130 r2273kMod b3065e6
Encoding settings : cabac=1 / ref=10 / deblock=1:-2:-1 / analyse=0x3:0x133 / me=umh / subme=11 / psy=1 / fade_compensate=0.00 / psy_rd=0.60:0.00 / mixed_ref=1 / me_range=32 / chroma_me=1 / trellis=2 / 8x8dct=1 / cqm=0 / deadzone=21,11 / fast_pskip=0 / chroma_qp_offset=-2 / threads=6 / lookahead_threads=1 / sliced_threads=0 / nr=0 / decimate=1 / interlaced=0 / bluray_compat=0 / constrained_intra=0 / bframes=10 / b_pyramid=2 / b_adapt=2 / b_bias=0 / direct=1 / weightb=1 / open_gop=0 / weightp=2 / keyint=250 / keyint_min=23 / scenecut=40 / intra_refresh=0 / rc_lookahead=70 / rc=crf / mbtree=0 / crf=17.4600 / qcomp=0.80 / qpmin=0 / qpmax=69 / qpstep=4 / vbv_maxrate=50000 / vbv_bufsize=62500 / crf_max=0.0 / nal_hrd=none / ip_ratio=1.40 / pb_ratio=1.30 / aq=3:0.90
Language : English
Default : Yes
Forced : No
Color primaries : BT.709-5, BT.1361, IEC 61966-2-4, SMPTE RP177
Transfer characteristics : BT.709-5, BT.1361
Matrix coefficients : BT.709-5, BT.1361, IEC 61966-2-4 709, SMPTE RP177
Audio #1
ID : 2
Format : AC-3
Format/Info : Audio Coding 3
Mode extension : CM (complete main)
Codec ID : A_AC3
Duration : 1h 41mn
Bit rate mode : Constant
Bit rate : 448 Kbps
Channel(s) : 6 channels
Channel positions : Front: L C R, Side: L R, LFE
Sampling rate : 48.0 KHz
Bit depth : 16 bits
Compression mode : Lossy
Stream size : 324 MiB (10%)
Title : AC3, 6 ch, 48 kHz, 448 kbps, Dubbing
Language : Russian
Default : Yes
Forced : No
Audio #2
ID : 3
Format : AC-3
Format/Info : Audio Coding 3
Mode extension : CM (complete main)
Codec ID : A_AC3
Duration : 1h 41mn
Bit rate mode : Constant
Bit rate : 448 Kbps
Channel(s) : 6 channels
Channel positions : Front: L C R, Side: L R, LFE
Sampling rate : 48.0 KHz
Bit depth : 16 bits
Compression mode : Lossy
Stream size : 324 MiB (10%)
Title : AC3, 6 ch, 48 kHz, 448 kbps, Dubbing
Language : Ukrainian
Default : No
Forced : No
Audio #3
ID : 4
Format : AC-3
Format/Info : Audio Coding 3
Mode extension : CM (complete main)
Codec ID : A_AC3
Duration : 1h 41mn
Bit rate mode : Constant
Bit rate : 448 Kbps
Channel(s) : 6 channels
Channel positions : Front: L C R, Side: L R, LFE
Sampling rate : 48.0 KHz
Bit depth : 16 bits
Compression mode : Lossy
Stream size : 324 MiB (10%)
Title : AC3, 6 ch, 48 kHz, 448 kbps, Original
Language : English
Default : No
Forced : No
Text #1
ID : 5
Format : UTF-8
Codec ID : S_TEXT/UTF8
Codec ID/Info : UTF-8 Plain Text
Title : SRT, Full
Language : Russian
Default : No
Forced : No
Text #2
ID : 6
Format : UTF-8
Codec ID : S_TEXT/UTF8
Codec ID/Info : UTF-8 Plain Text
Title : SRT, Captions
Language : Russian
Default : No
Forced : No
Text #3
ID : 7
Format : UTF-8
Codec ID : S_TEXT/UTF8
Codec ID/Info : UTF-8 Plain Text
Title : SRT, Full
Language : Ukrainian
Default : No
Forced : No
Text #4
ID : 8
Format : UTF-8
Codec ID : S_TEXT/UTF8
Codec ID/Info : UTF-8 Plain Text
Title : SRT, Captions
Language : Ukrainian
Default : No
Forced : No
Text #5
ID : 9
Format : UTF-8
Codec ID : S_TEXT/UTF8
Codec ID/Info : UTF-8 Plain Text
Title : SRT, Full
Language : English
Default : No
Forced : No
Text #6
ID : 10
Format : UTF-8
Codec ID : S_TEXT/UTF8
Codec ID/Info : UTF-8 Plain Text
Title : SRT, (SDH)
Language : English
Default : No
Forced : No
Text #7
ID : 11
Format : UTF-8
Codec ID : S_TEXT/UTF8
Codec ID/Info : UTF-8 Plain Text
Title : SRT, Full
Language : French
Default : No
Forced : No
Text #8
ID : 12
Format : UTF-8
Codec ID : S_TEXT/UTF8
Codec ID/Info : UTF-8 Plain Text
Title : SRT, Full
Language : Spanish
Default : No
Forced : No
Menu
00:00:00.000 : en:1. Opening Titles
00:07:12.140 : en:2. 30 Years
00:16:34.910 : en:3. Hero's Duty
00:27:07.501 : en:4. Sugar Rush
00:37:25.952 : en:5. The Glitch
00:44:46.684 : en:6. Going Turbo
00:48:45.130 : en:7. Making a Car
00:51:36.009 : en:8. Driving Lessons
00:58:56.032 : en:9. King Candy's Secret
01:09:07.893 : en:10. Out Of Order
01:13:39.623 : en:11. Every Day Of My Life
01:15:56.802 : en:12. The Race
01:18:52.978 : en:13. Cy-Bug Invasion
01:21:53.742 : en:14. Can't Leave The Game
01:27:25.365 : en:15. One Game At A Time
01:33:10.543 : en:16. End Credits

Скриншоты

Скриншот с названием мультфильма
--BDRip-AVC


Source Blu-Ray

Bitrate Viewer

[Цитировать]



Показать сообщения:    

Текущее время: 10-Дек 11:58

Часовой пояс: UTC + 3


Вы не можете начинать темы
Вы не можете отвечать на сообщения
Вы не можете редактировать свои сообщения
Вы не можете удалять свои сообщения
Вы не можете голосовать в опросах
Вы не можете прикреплять файлы к сообщениям
Вы не можете скачивать файлы

!ВНИМАНИЕ!
Сайт не предоставляет электронные версии произведений, а занимается лишь коллекционированием и каталогизацией ссылок, присылаемых и публикуемых на форуме нашими читателями. Если вы являетесь правообладателем какого-либо представленного материала и не желаете, чтобы ссылка на него находилась в нашем каталоге, свяжитесь с нами, и мы незамедлительно удалим ее. Файлы для обмена на трекере предоставлены пользователями сайта, и администрация не несет ответственности за их содержание. Просьба не заливать файлы, защищенные авторскими правами, а также файлы нелегального содержания!