[ Сегодня идет свободное скачивание без начисления Download ]


Статистика раздачи
Нет
 
   
 
Top  
 
 
ПРАВО на «ЛЕВО»/ Les infid?les -Страна: Франция
Жанр: мелодрама, комедия
Студии: JD Prod, Black Dynamite Films, Mars Distribution
Год выпуска: 2011
Продолжительность: 01:47:30-Перевод: профессиональный (дублированный) лицензия
Субтитры: нет-Режиссёры: Эмманюэль Берко / Emmanuelle Bercot, Фред Кавайе / Fred Cavay?, Александр Кортес / Alexandre Court?s-В ролях: Жан Дюжарден (Fred / Olivier / Fran?ois / Laurent / James), Жиль Леллуш (Greg / Nicolas / Bernard / Antoine / Eric), Лионель Абелански (Le directeur de s?minaire), Фабрис Агоге (Infid?le anonyme #9), Пьер Бенуа (Le serveur), Вайолетт Бланкер (Fanny), Венсан Боннассо (Infid?le anonyme #7), Бастьен Буллон (Valentin), Гийом Кане (Thibault), Селестин Шаплен (Maxime), Ксавьер Клодон (Infid?le anonyme #1), Айна Клоте (Julia).-Описание:
Мужская неверность, во всех ее отчаянно абсурдных, умопомрачительно смешных проявлениях — чем не тема для новой комедии? Жан и Жиль в погоне за приключениями готовы на все. Жизнь их изрядно помотала, калейдоскопом меняя декорации вокруг: небольшой отель на окраине города сменялся клиникой для сексуально зависимых, а шикарный парижский ночной клуб роскошными казино Лас-Вегаса… Испробовав все возможные прелести бытия, приятели решают поближе заняться прекрасным полом, соблазняя и заманивая девушек в постель…
-5.9/10 (1158) 5.053 (2910)-Качество видео: BDRip (Исходник BDRemux)
Формат файла: AVI
Видео: XviD, 704x304 (2.35:1), 23.976 fps, 1486 kbps avg, 0.29 bit/pixel
Аудио: 48 kHz, AC3 Dolby Digital, 3/2 (L,C,R,l,r) + LFE ch, 448 kbps avg (Rus DUB)-

MediaInfo

Общее
Полное имя : D:\Torrent Rutracker\Pravo-na.levo.2012.DUB.XviD.AC3.BDRip._by.ZNG505_.avi
Формат : AVI
Формат/Информация : Audio Video Interleave
Размер файла : 1,46 Гбайт
Продолжительность : 1 ч. 47 м.
Общий поток : 1943 Кбит/сек
Программа кодирования : VirtualDubMod 1.5.10.3 | www.virtualdub-fr.org || (build 2550/release)
Библиотека кодирования : VirtualDubMod build 2550/release
Видео
Идентификатор : 0
Формат : MPEG-4 Visual
Профиль формата : Advanced Simple@L5
Параметр BVOP формата : 2
Параметр QPel формата : Нет
Параметр GMC формата : Без точки перехода
Параметр матрицы формата : Выборочная
Идентификатор кодека : XVID
Идентификатор кодека/Подсказка : XviD
Продолжительность : 1 ч. 47 м.
Битрейт : 1486 Кбит/сек
Ширина : 704 пикселя
Высота : 304 пикселя
Соотношение сторон : 2,35:1
Частота кадров : 23,976 кадра/сек
Цветовое пространство : YUV
Субдискретизация насыщенности : 4:2:0
Битовая глубина : 8 бит
Тип развёртки : Прогрессивная
Метод сжатия : С потерями
Бит/(Пиксели*Кадры) : 0.290
Размер потока : 1,12 Гбайт (76%)
Библиотека кодирования : XviD 65
Аудио
Идентификатор : 1
Формат : AC-3
Формат/Информация : Audio Coding 3
Расширение режима : CM (complete main)
Идентификатор кодека : 2000
Продолжительность : 1 ч. 47 м.
Вид битрейта : Постоянный
Битрейт : 448 Кбит/сек
Каналы : 6 каналов
Расположение каналов : Front: L C R, Side: L R, LFE
Частота : 48,0 КГц
Битовая глубина : 16 бит
Метод сжатия : С потерями
Размер потока : 344 Мбайт (23%)
Выравнивание : Разделение по промежуткам
Продолжительность промежутка : 42 мс. (1,00 видеокадр)
Время предзагрузки промежутка : 500 мс.

Скриншот c названием фильма

Скриншоты

[Цитировать]



Показать сообщения:    

Текущее время: 08-Дек 12:51

Часовой пояс: UTC + 3


Вы не можете начинать темы
Вы не можете отвечать на сообщения
Вы не можете редактировать свои сообщения
Вы не можете удалять свои сообщения
Вы не можете голосовать в опросах
Вы не можете прикреплять файлы к сообщениям
Вы не можете скачивать файлы

!ВНИМАНИЕ!
Сайт не предоставляет электронные версии произведений, а занимается лишь коллекционированием и каталогизацией ссылок, присылаемых и публикуемых на форуме нашими читателями. Если вы являетесь правообладателем какого-либо представленного материала и не желаете, чтобы ссылка на него находилась в нашем каталоге, свяжитесь с нами, и мы незамедлительно удалим ее. Файлы для обмена на трекере предоставлены пользователями сайта, и администрация не несет ответственности за их содержание. Просьба не заливать файлы, защищенные авторскими правами, а также файлы нелегального содержания!