[ Сегодня идет свободное скачивание без начисления Download ]


Статистика раздачи
Нет
 
   
 
Top  
 
 
-Бездна / The Deep (1977) BDRemux
«Is the treasure worth the terror?»
- Русское название: Бездна
Оригинальное название: The Master
Год выпуска: 1977
Производство: Casablanca Filmworks / EMI Films Ltd. [США]
Жанр: Ужасы, триллер, детектив, приключения
Перевод: Многоголосый закадровый (R5; ОРТ) / Дублированный (СССР) / Авторский одноголосый, закадровый (Андрей Гаврилов; Василий Горчаков; Юрий Живов)
Субтитры: Вшитые отключаемые
Язык субтитров: Русский, английский (полные *srt, *pgs; SDH *pgs), французский, немецкий, польский, финский, венгерский
Режиссер: Питер Йетс
Актеры: Роберт Шоу, Жаклин Биссет, Ник Нолти, Луис Госсет мл., Эли Уоллах, Дик Энтони Уильямс, Эрл Мэйнард, Боб Майнор, Тедди Такер, Роберт Тессьер
Описание фильма:
Супруги Гейл и Дэвид проводят отпуск на экзотическом бермудском острове. Во время подводной охоты им достается роскошная и опасная добыча: они находят затонувший испанский корабль, который набит несметными сокровищами. Искатели приключений и не подозревают, с чем им предстоит столкнуться в погоне за кладом. В конце концов, они оказываются на краю бездны, где любое неверное движение может стоить жизни.
Рецензия от kabanow...
Дата мировой премьеры: 17 июня 1977
Рейтинг PG - Рекомендуется присутствие родителей
Возраст 16+ - Зрителям, достигшим 16 лет

Продолжительность: 02:04:30
Качество видео: BDRemux 1080p
Видео: MPEG4_AVC/H.264, 1920x1080, ~25077 kbps, 23.976 fps
Аудио 1: AC3 2.0, 192 kbps [Русский - многоголосый закадровый «R5»]
Аудио 2: AC3 2.0, 192 kbps [Русский - многоголосый закадровый «ОРТ»]
Аудио 3: AC3 2.0, 192 kbps [Русский - дублированный СССР]
Аудио 4: AC3 5.1, 448 kbps [Русский - одноголосый закадровый «Андрей Гаврилов»]
Аудио 5: AC3 5.1, 640 kbps [Русский - одноголосый закадровый «Василий Горчаков»]
Аудио 6: DTS-HD MA 5.1, 2115 kbps [Русский - одноголосый закадровый «Юрий Живов»]
Аудио 7: TrueHD 5.1, 1367 kbps [Английский - оригинал]

Bitrate Viewer...

MediaInfo

Полное имя : D:\Бездна-The.Deep.(1977).[1080p].BDRemux.mkv
Формат : Matroska
Версия формата : Version 2
Размер файла : 26,4 Гбайт
Продолжительность : 2 ч. 4 м.
Режим общего битрейта : Переменный
Общий поток : 30,3 Мбит/сек
Название фильма : Lelya_K for NNM-Club.ru
Дата кодирования : UTC 2013-03-20 17:42:00
Программа кодирования : mkvmerge v5.7.0 ('The Whirlwind') built on Aug 7 2012 14:11:40
Библиотека кодирования : libebml v1.2.3 + libmatroska v1.3.0
Видео
Идентификатор : 1
Формат : AVC
Формат/Информация : Advanced Video Codec
Профиль формата : [email protected]
Параметр CABAC формата : Да
Параметр ReFrames формата : 2 кадра
Идентификатор кодека : V_MPEG4/ISO/AVC
Продолжительность : 2 ч. 4 м.
Вид битрейта : Переменный
Ширина : 1920 пикселей
Высота : 1080 пикселей
Соотношение сторон : 16:9
Режим частоты кадров : Постоянный
Частота кадров : 23,976 кадра/сек
Цветовое пространство : YUV
Субдискретизация насыщенности : 4:2:0
Битовая глубина : 8 бит
Тип развёртки : Прогрессивная
Заголовок : Бездна-The.Deep.(1977).[1080p].BDRemux
Язык : English
Default : Да
Forced : Нет
Аудио #1
Идентификатор : 2
Формат : AC-3
Формат/Информация : Audio Coding 3
Профиль формата : Dolby Digital
Расширение режима : CM (complete main)
Параметр Endianness формата : Big
Идентификатор кодека : A_AC3
Продолжительность : 2 ч. 4 м.
Вид битрейта : Постоянный
Битрейт : 192 Кбит/сек
Каналы : 2 канала
Расположение каналов : Front: L R
Частота : 48,0 КГц
Битовая глубина : 16 бит
Метод сжатия : С потерями
Размер потока : 171 Мбайт (1%)
Заголовок : Rus / AC3 2.0 / 192 kbps / MVO R5
Язык : Russian
Default : Да
Forced : Нет
Аудио #2
Идентификатор : 3
Формат : AC-3
Формат/Информация : Audio Coding 3
Расширение режима : CM (complete main)
Параметр Endianness формата : Big
Идентификатор кодека : A_AC3
Продолжительность : 2 ч. 4 м.
Вид битрейта : Постоянный
Битрейт : 192 Кбит/сек
Каналы : 2 канала
Расположение каналов : Front: L R
Частота : 48,0 КГц
Битовая глубина : 16 бит
Метод сжатия : С потерями
Размер потока : 171 Мбайт (1%)
Заголовок : Rus / AC3 2.0 / 192 kbps / MVO ОРТ
Язык : Russian
Default : Нет
Forced : Нет
Аудио #3
Идентификатор : 4
Формат : AC-3
Формат/Информация : Audio Coding 3
Профиль формата : Dolby Digital
Расширение режима : CM (complete main)
Параметр Endianness формата : Big
Идентификатор кодека : A_AC3
Продолжительность : 2 ч. 4 м.
Вид битрейта : Постоянный
Битрейт : 192 Кбит/сек
Каналы : 2 канала
Расположение каналов : Front: L R
Частота : 48,0 КГц
Битовая глубина : 16 бит
Метод сжатия : С потерями
Размер потока : 171 Мбайт (1%)
Заголовок : Rus / AC3 2.0 / 192 kbps / Dub
Язык : Russian
Default : Нет
Forced : Нет
Аудио #4
Идентификатор : 5
Формат : AC-3
Формат/Информация : Audio Coding 3
Расширение режима : CM (complete main)
Параметр Endianness формата : Big
Идентификатор кодека : A_AC3
Продолжительность : 2 ч. 4 м.
Вид битрейта : Постоянный
Битрейт : 448 Кбит/сек
Каналы : 6 каналов
Расположение каналов : Front: L C R, Side: L R, LFE
Частота : 48,0 КГц
Битовая глубина : 16 бит
Метод сжатия : С потерями
Размер потока : 399 Мбайт (1%)
Заголовок : Rus / AC3 5.1 / 448 kbps / AVO А.Гаврилов
Язык : Russian
Default : Нет
Forced : Нет
Аудио #5
Идентификатор : 6
Формат : AC-3
Формат/Информация : Audio Coding 3
Расширение режима : CM (complete main)
Параметр Endianness формата : Big
Идентификатор кодека : A_AC3
Продолжительность : 2 ч. 4 м.
Вид битрейта : Постоянный
Битрейт : 640 Кбит/сек
Каналы : 6 каналов
Расположение каналов : Front: L C R, Side: L R, LFE
Частота : 48,0 КГц
Битовая глубина : 16 бит
Метод сжатия : С потерями
Размер потока : 570 Мбайт (2%)
Заголовок : Rus / AC3 5.1 / 640 kbps / AVO В.Горчаков
Язык : Russian
Default : Нет
Forced : Нет
Аудио #6
Идентификатор : 7
Формат : DTS
Формат/Информация : Digital Theater Systems
Профиль формата : MA / Core
Идентификатор кодека : A_DTS
Продолжительность : 2 ч. 4 м.
Вид битрейта : Переменный
Битрейт : 2050 Кбит/сек / 1510 Кбит/сек
Каналы : 6 каналов
Расположение каналов : Front: L C R, Side: L R, LFE
Частота : 48,0 КГц
Битовая глубина : 16 бит
Метод сжатия : Без потерь / Lossy
Заголовок : Rus / DTS-HD MA 5.1 / 2115 kbps / AVO Ю.Живов
Язык : Russian
Default : Нет
Forced : Нет
Аудио #7
Идентификатор : 8
Формат : TrueHD
Идентификатор кодека : A_TRUEHD
Продолжительность : 2 ч. 4 м.
Вид битрейта : Переменный
Максимальный битрейт : 2376 Кбит/сек
Каналы : 6 каналов
Расположение каналов : Front: L C R, Side: L R, LFE
Частота : 48,0 КГц
Метод сжатия : Без потерь
Заголовок : Eng / TrueHD 5.1 / 1367 kbps / Original
Язык : English
Default : Нет
Forced : Нет
Текст #1
Идентификатор : 9
Формат : UTF-8
Идентификатор кодека : S_TEXT/UTF8
Идентификатор кодека/Информация : UTF-8 Plain Text
Заголовок : Russian / Full
Язык : Russian
Default : Нет
Forced : Нет
Текст #2
Идентификатор : 10
Формат : UTF-8
Идентификатор кодека : S_TEXT/UTF8
Идентификатор кодека/Информация : UTF-8 Plain Text
Заголовок : English / Full
Язык : English
Default : Нет
Forced : Нет
Текст #3
Идентификатор : 11
Формат : PGS
Идентификатор кодека : S_HDMV/PGS
Идентификатор кодека/Информация : The same subtitle format used on BDs/HD-DVDs
Заголовок : English / Full
Язык : English
Default : Нет
Forced : Нет
Текст #4
Идентификатор : 12
Формат : PGS
Идентификатор кодека : S_HDMV/PGS
Идентификатор кодека/Информация : The same subtitle format used on BDs/HD-DVDs
Заголовок : English / SDH
Язык : English
Default : Нет
Forced : Нет
Текст #5
Идентификатор : 13
Формат : UTF-8
Идентификатор кодека : S_TEXT/UTF8
Идентификатор кодека/Информация : UTF-8 Plain Text
Заголовок : French
Язык : French
Default : Нет
Forced : Нет
Текст #6
Идентификатор : 14
Формат : UTF-8
Идентификатор кодека : S_TEXT/UTF8
Идентификатор кодека/Информация : UTF-8 Plain Text
Заголовок : German
Язык : German
Default : Нет
Forced : Нет
Текст #7
Идентификатор : 15
Формат : UTF-8
Идентификатор кодека : S_TEXT/UTF8
Идентификатор кодека/Информация : UTF-8 Plain Text
Заголовок : Polish
Язык : Polish
Default : Нет
Forced : Нет
Текст #8
Идентификатор : 16
Формат : UTF-8
Идентификатор кодека : S_TEXT/UTF8
Идентификатор кодека/Информация : UTF-8 Plain Text
Заголовок : Finnish
Язык : Finnish
Default : Нет
Forced : Нет
Текст #9
Идентификатор : 17
Формат : UTF-8
Идентификатор кодека : S_TEXT/UTF8
Идентификатор кодека/Информация : UTF-8 Plain Text
Заголовок : Hungarian
Язык : Hungarian
Default : Нет
Forced : Нет
Меню
00:00:00.000 : en:Chapter 00
00:08:33.554 : en:Chapter 01
00:16:56.181 : en:Chapter 02
00:22:52.079 : en:Chapter 03
00:29:13.668 : en:Chapter 04
00:40:16.539 : en:Chapter 05
00:47:18.293 : en:Chapter 06
00:55:24.029 : en:Chapter 07
01:12:44.818 : en:Chapter 08
01:19:36.897 : en:Chapter 09
01:26:58.922 : en:Chapter 10
01:34:20.905 : en:Chapter 11
01:41:07.019 : en:Chapter 12
01:46:58.995 : en:Chapter 13
01:54:33.992 : en:Chapter 14
02:00:27.470 : en:Chapter 15

Награды...

Оскар, 1978 год

Номинации (1):
  • Лучший звук
Золотой глобус, 1978 год

Номинации (1):
  • Лучшая песня — «Down Deep Inside»
Британская академия, 1978 год

Номинации (1):
  • Лучшая работа оператора

Знаете ли вы, что...

  • Занимает 60-е место по посещаемости среди зарубежных фильмов в советском кинопрокате.
Скриншоты:


Время раздачи: 24/7 (до 10 скачавших)

[Цитировать]



Показать сообщения:    

Текущее время: 04-Дек 06:59

Часовой пояс: UTC + 3


Вы не можете начинать темы
Вы не можете отвечать на сообщения
Вы не можете редактировать свои сообщения
Вы не можете удалять свои сообщения
Вы не можете голосовать в опросах
Вы не можете прикреплять файлы к сообщениям
Вы не можете скачивать файлы

!ВНИМАНИЕ!
Сайт не предоставляет электронные версии произведений, а занимается лишь коллекционированием и каталогизацией ссылок, присылаемых и публикуемых на форуме нашими читателями. Если вы являетесь правообладателем какого-либо представленного материала и не желаете, чтобы ссылка на него находилась в нашем каталоге, свяжитесь с нами, и мы незамедлительно удалим ее. Файлы для обмена на трекере предоставлены пользователями сайта, и администрация не несет ответственности за их содержание. Просьба не заливать файлы, защищенные авторскими правами, а также файлы нелегального содержания!