[ Сегодня идет свободное скачивание без начисления Download ]


Статистика раздачи
Нет
 
   
 
 
 
-Джанго освобожденный / Django Unchained (2012) HDRip- Русское название: Джанго освобожденный
Оригинальное название: Django Unchained
Год выпуска: 2012
Производство: США | Brown 26 Productions; Columbia Pictures; Double Feature Films; Super Cool Man Shoe Too; Super Cool ManChu, Too; The Weinstein Company LLC; Visiona Romantica
Жанр: Вестерн, Драма
Перевод: Дублированный [чистый звук]
Дата мировой премьеры: 25 декабря 2012
Дата российской премьеры: 17 января 2013, «WDSSPR»
Дата выхода DVD релиза: 2 мая 2013, «Columbia/Sony»
Режиссер: Квентин Тарантино
Продюсер: Реджинальд Хадлин, Пилар Савон, Стейси Шер
Актеры: Джейми Фокс, Кристоф Вальц, Леонардо ДиКаприо, Керри Вашингтон, Сэмюэл Л. Джексон, Уолтон Гоггинс, Деннис Кристофер, Джеймс Римар, Майкл Паркс, Дон Джонсон...
Описание фильма:
Эксцентричный охотник за головами, также известный как «Дантист», промышляет отстрелом самых опасных преступников на Диком Западе. Работенка пыльная, и без надежного помощника ему не обойтись. Но как найти такого и желательно не очень дорогого? Беглый раб по имени Джанго — прекрасная кандидатура. Правда, у нового помощника свои мотивы — кое с чем надо разобраться…

Продолжительность: 02:45:22
Качество видео: HDRip
Битрейт видео: ~809 Kbps
Размер кадра: 720x304
Аудиокодек: AC3, 6 каналов
Битрейт аудио: 448 Kbps
Сэмпл: Скачать

MediaInfo

Общее
Полное имя : C:\Раздачи\Django.2012.D.HDRip.1.46Gb.avi
Формат : AVI
Формат/Информация : Audio Video Interleave
Размер файла : 1,46 Гбайт
Продолжительность : 2 ч. 45 м.
Общий поток : 1266 Кбит/сек
Программа кодирования : VirtualDubMod 1.5.10.2 (build 2540/release)
Библиотека кодирования : VirtualDubMod build 2540/release
Видео
Идентификатор : 0
Формат : MPEG-4 Visual
Профиль формата : Advanced [email protected]
Параметр BVOP формата : 2
Параметр QPel формата : Нет
Параметр GMC формата : Без точки перехода
Параметр матрицы формата : Default (H.263)
Идентификатор кодека : XVID
Идентификатор кодека/Подсказка : XviD
Продолжительность : 2 ч. 45 м.
Битрейт : 809 Кбит/сек
Ширина : 720 пикселей
Высота : 304 пикселя
Соотношение сторон : 2,35:1
Частота кадров : 23,976 кадра/сек
Цветовое пространство : YUV
Субдискретизация насыщенности : 4:2:0
Битовая глубина : 8 бит
Тип развёртки : Прогрессивная
Метод сжатия : С потерями
Бит/(Пиксели*Кадры) : 0.154
Размер потока : 956 Мбайт (64%)
Библиотека кодирования : XviD 1.2.1 (UTC 2008-12-04)
Аудио
Идентификатор : 1
Формат : AC-3
Формат/Информация : Audio Coding 3
Расширение режима : CM (complete main)
Параметр Endianness формата : Big
Идентификатор кодека : 2000
Продолжительность : 2 ч. 45 м.
Вид битрейта : Постоянный
Битрейт : 448 Кбит/сек
Каналы : 6 каналов
Расположение каналов : Front: L C R, Side: L R, LFE
Частота : 48,0 КГц
Битовая глубина : 16 бит
Метод сжатия : С потерями
Размер потока : 530 Мбайт (35%)
Выравнивание : Разделение по промежуткам
Продолжительность промежутка : 42 мс. (1,00 видеокадр)
Время предзагрузки промежутка : 500 мс.

Награды и наминации:

Оскар, 2013 год
Победитель (2):
Лучшая мужская роль второго плана (Кристоф Вальц)
Лучший сценарий
Номинации (3):
Лучший фильм
Лучшая работа оператора
Лучший монтаж звука
Золотой глобус, 2013 год
Победитель (2):
Лучшая мужская роль второго плана (Кристоф Вальц)
Лучший сценарий
Номинации (3):
Лучший фильм (драма)
Лучшая мужская роль второго плана (Леонардо ДиКаприо)
Лучший режиссер (Квентин Тарантино)
Премия канала «MTV», 2013 год
Номинации (7):
Лучший фильм
Лучшая мужская роль (Джейми Фокс)
Лучший злодей (Леонардо ДиКаприо)
Лучший поцелуй
Лучший экранный дуэт
Лучшая драка
Самый безумный эпизод
Британская академия, 2013 год
Победитель (2):
Лучшая мужская роль второго плана (Кристоф Вальц)
Лучший оригинальный сценарий
Номинации (3):
Лучший режиссер (Квентин Тарантино)
Лучший звук
Лучший монтаж
Сатурн, 2013 год
Номинации (4):
Лучший актер второго плана (Кристоф Вальц)
Лучший сценарий
Лучшие костюмы
Лучший приключенческий фильм или боевик
Скриншоты:

Время раздачи: c 12-00 до 24-00

[Цитировать]

Топик был перенесен из форума Новинки кинопроката в форум Вестерн
Henkok



Показать сообщения:    

Текущее время: 06-Дек 19:08

Часовой пояс: UTC + 3


Вы не можете начинать темы
Вы не можете отвечать на сообщения
Вы не можете редактировать свои сообщения
Вы не можете удалять свои сообщения
Вы не можете голосовать в опросах
Вы не можете прикреплять файлы к сообщениям
Вы не можете скачивать файлы

!ВНИМАНИЕ!
Сайт не предоставляет электронные версии произведений, а занимается лишь коллекционированием и каталогизацией ссылок, присылаемых и публикуемых на форуме нашими читателями. Если вы являетесь правообладателем какого-либо представленного материала и не желаете, чтобы ссылка на него находилась в нашем каталоге, свяжитесь с нами, и мы незамедлительно удалим ее. Файлы для обмена на трекере предоставлены пользователями сайта, и администрация не несет ответственности за их содержание. Просьба не заливать файлы, защищенные авторскими правами, а также файлы нелегального содержания!