[ Сегодня идет свободное скачивание без начисления Download ]


Статистика раздачи
Нет
 
   
 
 
 
[sh]Тайны истории. Ди Би Купер. Сбежавший террорист / History's Secrets. The Skyjacker That Got Away[/sh]

Год выпуска: 2009
Страна: CША
Жанр: документальный, кинохроника, криминал, расследован
Продолжительность: 00:48:59
Перевод: Профессиональный (двухголосый закадровый)
Русские субтитры: нет
Режиссер: Филип Дэй
Описание: канун Дня благодарения 1971 года человек, одетый в деловой костюм, выпрыгнул из коммерческого самолета с парашютом и двумястами тысячами долларов выкупа. Впервые в истории ФБР команда сыщиков, используя достижения современной судебной медицины, попробует разгадать тайну самого разыскиваемого человека - Ди Би Купера.

качество: SATRip
формат: AVI
видеокодек: XviD
аудиокодек: MP3
Видео: 704x448 (1.57:1), 25 fps, XviD MPEG-4 ~1500 kbps avg, 0.21 bit/pixel
Аудио: 48 kHz, MPEG Layer 3, 2 ch, ~128.00 kbps avg

MediaInfo

General
Complete name : C:\Documents and Settings\Mersicc\Мои документы\Мои видеозаписи\Ди Би Купер. Сбежавший террорист.2009.avi
Format : AVI
Format/Info : Audio Video Interleave
File size : 573 MiB
Duration : 48mn 59s
Overall bit rate : 1 636 Kbps
Writing library : VirtualDub build 35390/release
Video
ID : 0
Format : MPEG-4 Visual
Format profile : Advanced Simple@L5
Format settings, BVOP : 2
Format settings, QPel : No
Format settings, GMC : No warppoints
Format settings, Matrix : Default (H.263)
Muxing mode : Packed bitstream
Codec ID : XVID
Codec ID/Hint : XviD
Duration : 48mn 59s
Bit rate : 1 499 Kbps
Width : 704 pixels
Height : 448 pixels
Display aspect ratio : 1.571
Frame rate : 25.000 fps
Color space : YUV
Chroma subsampling : 4:2:0
Bit depth : 8 bits
Scan type : Progressive
Compression mode : Lossy
Bits/(Pixel*Frame) : 0.190
Stream size : 525 MiB (92%)
Writing library : XviD 1.2.1 (UTC 2008-12-04)
Audio
ID : 1
Format : MPEG Audio
Format version : Version 1
Format profile : Layer 3
Mode : Joint stereo
Mode extension : MS Stereo
Codec ID : 55
Codec ID/Hint : MP3
Duration : 48mn 59s
Bit rate mode : Constant
Bit rate : 128 Kbps
Channel(s) : 2 channels
Sampling rate : 48.0 KHz
Compression mode : Lossy
Stream size : 44.9 MiB (8%)
Alignment : Split accross interleaves
Interleave, duration : 40 ms (1.00 video frame)
Interleave, preload duration : 500 ms

Скриншоты

[Цитировать]



Показать сообщения:    

Текущее время: 10-Дек 00:20

Часовой пояс: UTC + 3


Вы не можете начинать темы
Вы не можете отвечать на сообщения
Вы не можете редактировать свои сообщения
Вы не можете удалять свои сообщения
Вы не можете голосовать в опросах
Вы не можете прикреплять файлы к сообщениям
Вы не можете скачивать файлы

!ВНИМАНИЕ!
Сайт не предоставляет электронные версии произведений, а занимается лишь коллекционированием и каталогизацией ссылок, присылаемых и публикуемых на форуме нашими читателями. Если вы являетесь правообладателем какого-либо представленного материала и не желаете, чтобы ссылка на него находилась в нашем каталоге, свяжитесь с нами, и мы незамедлительно удалим ее. Файлы для обмена на трекере предоставлены пользователями сайта, и администрация не несет ответственности за их содержание. Просьба не заливать файлы, защищенные авторскими правами, а также файлы нелегального содержания!