[ Сегодня идет свободное скачивание без начисления Download ]


Статистика раздачи
Нет
 
   
 
Top  
 
 
[sh]Неблагоприятные Кварталы / Форестгейт / Ill Manors[/sh]- Страна: Великобритания
Жанр: драма, криминал
Год выпуска: 2012
Продолжительность: 02:01:07
Перевод: Одноголосый закадровый Gopstarrr
Cубтитры: русские (на песни), английские
Оригинальная аудиодорожка: английский
Режиссер: Бен Дрю / Ben Drew
В ролях: Риз Ахмед, Эд Скрейн, Натали Пресс, Анушка Монд, Мем Ферда, Ли Аллен, Даниэль Брент, Мартин Серен, Джо Хартли, Нил Лардж, Том Бэйкон, Крис Уилсон, Мохан Рандхава, Люси Флэк, Гари Херон, Роберт Джудд
Описание: Шесть жизней, прямо не связанных между собой людей, каждый из которых по-своему борется за выживание в окружающем их круге насилия и жестокости. Качество видео: BDRip-AVC / BDRemux
Формат видео: MKV
Видео: MPEG-4 AVC Video / 2552 Кбит/сек / 1120x608 / 24,000 / 16:9 / 0.156 bpp / High Profile 4.1
Аудио #1: AC3 / Dolby Digital Audio / 5.1 / 48 kHz / 448 kbps |Одноголосый закадровый Gopstarrr|
Аудио #2: AC3 / Dolby Digital Audio / 5.1 / 48 kHz / 448 kbps |Original|
Формат субтитров: softsub (SRT)
Навигация по главам: есть

MediaInfo / x264

x264

[color=#006699]---[NoImage] avs [info]: 1120x608p 1:1 @ 24/1 fps (cfr)
---[NoImage] x264 [info]: using SAR=1/1
---[NoImage] x264 [info]: using cpu capabilities: MMX2 SSE2Fast SSSE3 FastShuffle SSE4.2 AVX
---[NoImage] x264 [info]: profile High, level 4.1
---[NoImage]
---[NoImage] x264 [info]: frame I:1399  Avg QP:14.99  size: 76240
---[NoImage] x264 [info]: frame P:38060 Avg QP:18.15  size: 26838
---[NoImage] x264 [info]: frame B:134965 Avg QP:20.03  size:  8776
---[NoImage] x264 [info]: consecutive B-frames:  2.5%  2.7%  9.6% 16.3% 13.0% 47.3%  3.9%  0.8%  1.7%  0.6%  0.5%  1.1%
---[NoImage] x264 [info]: mb I  I16..4:  8.7% 74.3% 17.0%
---[NoImage] x264 [info]: mb P  I16..4:  1.7% 10.1%  1.2%  P16..4: 34.0% 34.1%  8.9%  2.0%  0.1%    skip: 7.9%
---[NoImage] x264 [info]: mb B  I16..4:  0.1%  0.8%  0.1%  B16..8: 34.9% 19.7%  2.8%  direct: 5.2%  skip:36.3%  L0:45.7% L1:46.0% BI: 8.3%
---[NoImage] x264 [info]: 8x8 transform intra:77.1% inter:64.6%
---[NoImage] x264 [info]: direct mvs  spatial:98.6% temporal:1.4%
---[NoImage] x264 [info]: coded y,uvDC,uvAC intra: 82.4% 76.4% 52.1% inter: 20.0% 25.1% 8.8%
---[NoImage] x264 [info]: i16 v,h,dc,p: 21% 16%  6% 57%
---[NoImage] x264 [info]: i8 v,h,dc,ddl,ddr,vr,hd,vl,hu:  8%  8%  5% 10% 15% 14% 14% 13% 13%
---[NoImage] x264 [info]: i4 v,h,dc,ddl,ddr,vr,hd,vl,hu: 11% 12%  4%  9% 15% 13% 14% 10% 12%
---[NoImage] x264 [info]: i8c dc,h,v,p: 38% 27% 18% 17%
---[NoImage] x264 [info]: Weighted P-Frames: Y:13.4% UV:8.5%
---[NoImage] x264 [info]: ref P L0: 46.4%  7.4% 18.8%  6.9%  5.5%  3.9%  3.7%  2.0%  1.8%  1.5%  1.6%  0.4%  0.1%
---[NoImage] x264 [info]: ref B L0: 73.3% 11.4%  5.6%  3.1%  1.9%  1.6%  1.4%  0.9%  0.5%  0.3%
---[NoImage] x264 [info]: ref B L1: 93.3%  6.7%
---[NoImage] x264 [info]: kb/s:2545.64
---[NoImage] encoded 174424 frames, 1.18 fps, 2545.64 kb/s[/color]
Общее
Уникальный идентификатор         : 195276391387609712515465526210470769023 (0x92E8DD6E0D9BC7A7A93FC97A9CEA717F)
Полное имя                       : E:\Ill Manors.2012.BDRip-AVC_[rutracker.org]_by_Deerhoof.mkv
Формат                           : Matroska
Версия формата                   : Version 2
Размер файла                     : 2,91 Гбайт
Продолжительность                : 2 ч. 1 м.
Общий поток                      : 3443 Кбит/сек
Название фильма                  : Ill Manors.2012
Дата кодирования                 : UTC 2012-12-18 17:16:14
Программа кодирования            : mkvmerge v5.8.0 ('No Sleep / Pillow') built on Sep  2 2012 15:37:04
Библиотека кодирования           : libebml v1.2.3 + libmatroska v1.3.0
Видео
Идентификатор                    : 1
Формат                           : AVC
Формат/Информация                : Advanced Video Codec
Профиль формата                  : High@L4.1
Параметр CABAC формата           : Да
Параметр ReFrames формата        : 11 кадров
Идентификатор кодека             : V_MPEG4/ISO/AVC
Продолжительность                : 2 ч. 1 м.
Битрейт                          : 2552 Кбит/сек
Ширина                           : 1120 пикселей
Высота                           : 608 пикселей
Соотношение сторон               : 16:9
Частота кадров                   : 24,000 кадра/сек
Цветовое пространство            : YUV
Субдискретизация насыщенности    : 4:2:0
Битовая глубина                  : 8 бит
Тип развёртки                    : Прогрессивная
Бит/(Пиксели*Кадры)              : 0.156
Размер потока                    : 2,10 Гбайт (72%)
Заголовок                        : Ill Manors.2012.BDRip-AVC_[rutracker.org]_by_Deerhoof
Библиотека кодирования           : x264 core 125 r2200 999b753
Настройки программы              : cabac=1 / ref=11 / deblock=1:-2:-1 / analyse=0x3:0x133 / me=tesa / subme=11 / psy=1 / psy_rd=0.95:0.05 / mixed_ref=1 / me_range=48 / chroma_me=1 / trellis=2 / 8x8dct=1 / cqm=0 / deadzone=21,11 / fast_pskip=0 / chroma_qp_offset=-3 / threads=6 / lookahead_threads=1 / sliced_threads=0 / nr=0 / decimate=0 / interlaced=0 / bluray_compat=0 / constrained_intra=0 / bframes=11 / b_pyramid=2 / b_adapt=2 / b_bias=0 / direct=3 / weightb=1 / open_gop=0 / weightp=2 / keyint=240 / keyint_min=24 / scenecut=40 / intra_refresh=0 / rc=2pass / mbtree=0 / bitrate=2552 / ratetol=1.0 / qcomp=0.60 / qpmin=0 / qpmax=69 / qpstep=4 / cplxblur=20.0 / qblur=0.5 / ip_ratio=1.40 / pb_ratio=1.30 / aq=2:0.80
Язык                             : English
Коэффициенты матрицы             : BT.709-5, BT.1361, IEC 61966-2-4 709, SMPTE RP177
Аудио #1
Идентификатор                    : 2
Формат                           : AC-3
Формат/Информация                : Audio Coding 3
Расширение режима                : CM (complete main)
Идентификатор кодека             : A_AC3
Продолжительность                : 2 ч. 1 м.
Вид битрейта                     : Постоянный
Битрейт                          : 448 Кбит/сек
Каналы                           : 6 каналов
Расположение каналов             : Front: L C R, Side: L R, LFE
Частота                          : 48,0 КГц
Битовая глубина                  : 16 бит
Метод сжатия                     : С потерями
Размер потока                    : 388 Мбайт (13%)
Заголовок                        : Одноголосый закадровый (Gopstarrr)
Язык                             : Russian
Аудио #2
Идентификатор                    : 3
Формат                           : AC-3
Формат/Информация                : Audio Coding 3
Расширение режима                : CM (complete main)
Идентификатор кодека             : A_AC3
Продолжительность                : 2 ч. 1 м.
Вид битрейта                     : Постоянный
Битрейт                          : 448 Кбит/сек
Каналы                           : 6 каналов
Расположение каналов             : Front: L C R, Side: L R, LFE
Частота                          : 48,0 КГц
Битовая глубина                  : 16 бит
Метод сжатия                     : С потерями
Размер потока                    : 388 Мбайт (13%)
Язык                             : English
Текст #1
Идентификатор                    : 4
Формат                           : UTF-8
Идентификатор кодека             : S_TEXT/UTF8
Идентификатор кодека/Информация  : UTF-8 Plain Text
Заголовок                        : Forced (на песни)
Язык                             : Russian
Текст #2
Идентификатор                    : 5
Формат                           : UTF-8
Идентификатор кодека             : S_TEXT/UTF8
Идентификатор кодека/Информация  : UTF-8 Plain Text
Язык                             : English
Меню
00:00:00.000                     : en:
00:12:25.875                     : en:
00:19:07.125                     : en:
00:31:41.333                     : en:
00:41:01.041                     : en:
00:50:59.166                     : en:
01:01:56.916                     : en:
01:11:02.916                     : en:
01:23:05.958                     : en:
01:29:31.291                     : en:
01:41:11.875                     : en:
01:51:21.916                     : en:

Скриншоты


[Цитировать]



Показать сообщения:    

Текущее время: 02-Дек 21:06

Часовой пояс: UTC + 3


Вы не можете начинать темы
Вы не можете отвечать на сообщения
Вы не можете редактировать свои сообщения
Вы не можете удалять свои сообщения
Вы не можете голосовать в опросах
Вы не можете прикреплять файлы к сообщениям
Вы не можете скачивать файлы

!ВНИМАНИЕ!
Сайт не предоставляет электронные версии произведений, а занимается лишь коллекционированием и каталогизацией ссылок, присылаемых и публикуемых на форуме нашими читателями. Если вы являетесь правообладателем какого-либо представленного материала и не желаете, чтобы ссылка на него находилась в нашем каталоге, свяжитесь с нами, и мы незамедлительно удалим ее. Файлы для обмена на трекере предоставлены пользователями сайта, и администрация не несет ответственности за их содержание. Просьба не заливать файлы, защищенные авторскими правами, а также файлы нелегального содержания!