[ Сегодня идет свободное скачивание без начисления Download ]


Статистика раздачи
Нет
 
   
 
Top  
 
 
-Удар молнии / Struck by Lightning (2012) BDRip [1080p]
«A personal raincloud can be deadly...»
- Русское название: Удар молнии
Оригинальное название: Struck by Lightning
Год выпуска: 2012
Производство: США | Permut Presentations, Camellia Entertainment, Evil Media Empire
Жанр: Комедия, Драма
Перевод: Многоголосый закадровый профессиональный, Любительский (многоголосный) [Flux-Team]
Субтитры: Вшитые отключаемые
Язык субтитров: Русский, Английский
Режиссер: Брайан Дэннели
Актеры: Сара Хайланд, Ребел Уилсон, Кристина Хендрикс, Эллисон Дженни, Дермот Малруни, Крис Колфер, Эшли Рикардс, Элли Грант, Робби Амелл, Мэтт Прокоп
Описание фильма:
События в фильме описываются с точки зрения воспоминаний студента Карсона Филлипса, которого убивает ударом молнии. История о том, как шантажировал своих одноклассников с целью содействия в публикации в литературном журнале, а также о его отношениях с матерью, Шэрил Филлипс, которая пытается восстановить связь с сыном до его отъезда в колледж.
Дата мировой премьеры: 21 апреля 2012

Продолжительность: 01:23:39
Качество видео: BDRip 1080p
Видео: ~14,1 Mb/s, 1920х1080
Аудио 1: AC-3, 2.0, 192 kb/s [Русский] - Многоголосый профессиональный
Аудио 2: AC-3, 2.0, 192 kb/s [Русский]- Многоголосный любительский [Flux-Team]
Аудио 3: AC-3, 5.1, 640 kb/s [Английский]
Сэмпл: Скачать

MediaInfo...

Формат : Matroska
Версия формата : Version 4 / Version 2
Размер файла : 9,06 Гбайт
Продолжительность : 1 ч. 23 м.
Общий поток : 15,4 Мбит/сек
Дата кодирования : UTC 2013-03-27 15:26:42
Программа кодирования : mkvmerge v6.1.0 ('Old Devil') built on Mar 2 2013 14:32:37
Библиотека кодирования : libebml v1.3.0 + libmatroska v1.4.0
Видео
Идентификатор : 1
Формат : AVC
Формат/Информация : Advanced Video Codec
Профиль формата : High@L4.1
Параметр CABAC формата : Да
Параметр ReFrames формата : 4 кадра
Идентификатор кодека : V_MPEG4/ISO/AVC
Продолжительность : 1 ч. 23 м.
Битрейт : 14,1 Мбит/сек
Ширина : 1920 пикселей
Высота : 1080 пикселей
Соотношение сторон : 16:9
Режим частоты кадров : Постоянный
Частота кадров : 23,976 кадра/сек
Цветовое пространство : YUV
Субдискретизация насыщенности : 4:2:0
Битовая глубина : 8 бит
Тип развёртки : Прогрессивная
Бит/(Пиксели*Кадры) : 0.284
Размер потока : 8,28 Гбайт (91%)
Заголовок : BDRip 1920 x 1080 (sdv_f)
Библиотека кодирования : x264 core 130 r2273 b3065e6
Настройки программы : cabac=1 / ref=4 / deblock=1:-3:-3 / analyse=0x3:0x113 / me=umh / subme=11 / psy=1 / psy_rd=1.00:0.03 / mixed_ref=1 / me_range=56 / chroma_me=1 / trellis=2 / 8x8dct=1 / cqm=0 / deadzone=21,11 / fast_pskip=0 / chroma_qp_offset=-3 / threads=6 / lookahead_threads=1 / sliced_threads=0 / nr=0 / decimate=0 / interlaced=0 / bluray_compat=0 / constrained_intra=0 / bframes=6 / b_pyramid=2 / b_adapt=2 / b_bias=0 / direct=1 / weightb=1 / open_gop=0 / weightp=2 / keyint=240 / keyint_min=22 / scenecut=40 / intra_refresh=0 / rc=crf / mbtree=0 / crf=17.5 / qcomp=0.60 / qpmin=0 / qpmax=69 / qpstep=4 / ip_ratio=1.40 / pb_ratio=1.30 / aq=2:1.00
Язык : English
Default : Да
Forced : Нет
Аудио #1
Идентификатор : 2
Формат : AC-3
Формат/Информация : Audio Coding 3
Расширение режима : CM (complete main)
Параметр Endianness формата : Big
Идентификатор кодека : A_AC3
Продолжительность : 1 ч. 23 м.
Вид битрейта : Постоянный
Битрейт : 192 Кбит/сек
Каналы : 2 канала
Расположение каналов : Front: L R
Частота : 48,0 КГц
Битовая глубина : 16 бит
Метод сжатия : С потерями
Размер потока : 115 Мбайт (1%)
Заголовок : Профессиональный Многоголосый
Язык : Russian
Default : Да
Forced : Нет
Аудио #2
Идентификатор : 3
Формат : AC-3
Формат/Информация : Audio Coding 3
Расширение режима : CM (complete main)
Параметр Endianness формата : Big
Идентификатор кодека : A_AC3
Продолжительность : 1 ч. 23 м.
Вид битрейта : Постоянный
Битрейт : 192 Кбит/сек
Каналы : 2 канала
Расположение каналов : Front: L R
Частота : 48,0 КГц
Битовая глубина : 16 бит
Метод сжатия : С потерями
Размер потока : 115 Мбайт (1%)
Заголовок : Любительский (многоголосный закадровый) [Flux-Team]
Язык : Russian
Default : Нет
Forced : Нет
Аудио #3
Идентификатор : 4
Формат : AC-3
Формат/Информация : Audio Coding 3
Расширение режима : CM (complete main)
Параметр Endianness формата : Big
Идентификатор кодека : A_AC3
Продолжительность : 1 ч. 23 м.
Вид битрейта : Постоянный
Битрейт : 640 Кбит/сек
Каналы : 6 каналов
Расположение каналов : Front: L C R, Side: L R, LFE
Частота : 48,0 КГц
Битовая глубина : 16 бит
Метод сжатия : С потерями
Размер потока : 385 Мбайт (4%)
Заголовок : Английский
Язык : English
Default : Нет
Forced : Нет
Текст #1
Идентификатор : 5
Формат : UTF-8
Идентификатор кодека : S_TEXT/UTF8
Идентификатор кодека/Информация : UTF-8 Plain Text
Заголовок : Русские
Язык : Russian
Default : Нет
Forced : Нет
Текст #2
Идентификатор : 6
Формат : UTF-8
Идентификатор кодека : S_TEXT/UTF8
Идентификатор кодека/Информация : UTF-8 Plain Text
Заголовок : Английские
Язык : English
Default : Нет
Forced : Нет
Меню
00:00:00.000 : :00:00:00.000
00:04:06.496 : :00:04:06.496
00:11:33.443 : :00:11:33.443
00:17:05.066 : :00:17:05.066
00:21:49.183 : :00:21:49.183
00:26:55.948 : :00:26:55.948
00:30:49.181 : :00:30:49.181
00:35:02.350 : :00:35:02.350
00:40:12.118 : :00:40:12.118
00:44:20.700 : :00:44:20.700
00:50:44.083 : :00:50:44.083
00:56:16.081 : :00:56:16.081
01:01:35.775 : :01:01:35.775
01:06:19.684 : :01:06:19.684
01:10:49.704 : :01:10:49.704
01:17:58.549 : :01:17:58.549
Скриншоты:

Время раздачи: 24/7 (до 10 скачавших)

[Цитировать]



Показать сообщения:    

Текущее время: 07-Дек 13:38

Часовой пояс: UTC + 3


Вы не можете начинать темы
Вы не можете отвечать на сообщения
Вы не можете редактировать свои сообщения
Вы не можете удалять свои сообщения
Вы не можете голосовать в опросах
Вы не можете прикреплять файлы к сообщениям
Вы не можете скачивать файлы

!ВНИМАНИЕ!
Сайт не предоставляет электронные версии произведений, а занимается лишь коллекционированием и каталогизацией ссылок, присылаемых и публикуемых на форуме нашими читателями. Если вы являетесь правообладателем какого-либо представленного материала и не желаете, чтобы ссылка на него находилась в нашем каталоге, свяжитесь с нами, и мы незамедлительно удалим ее. Файлы для обмена на трекере предоставлены пользователями сайта, и администрация не несет ответственности за их содержание. Просьба не заливать файлы, защищенные авторскими правами, а также файлы нелегального содержания!