[ Сегодня идет свободное скачивание без начисления Download ]


Статистика раздачи
Нет
 
   
 
Top  
 
 
Грязный Гарри 2: Сила магнума / Dirty Harry 2: Magnum Force- [sh]Информация о фильме[/sh]
Название: Грязный Гарри 2: Высшая сила (Сила магнума)
Оригинальное название: Dirty Harry 2: Magnum Force
Год выхода: 1973
Жанр: боевик, триллер, криминал
Режиссер: Тед Пост
В ролях: Клинт Иствуд, Хэл Холбрук, Митч Райан, Дэвид Соул, Тим Мэтисон, Кип Нивен, Роберт Урих, Фелтон Перри, Морис Аргент, Маргарет Эйвери-[sh]О фильме:[/sh]
Таинственная волна убийств потрясла весь преступный мир. Один за другим погибают криминальные авторитеты, избежавшие судебного наказания. Им воздается по справедливости, которую одобрил бы своей очаровательной улыбкой полицейский детектив Гарри Каллахен. Он и его новый напарник выслеживают банду мстителей, взявших закон в свои руки.-[imdb]tt0070355[/imdb] -Страна: США
Продолжительность: 02:02:33
Перевод 1: Профессиональный (многоголосый закадровый)
Перевод 2: Дубляж (Варус видео)-[sh]Файл[/sh]
Контейнер: MKV
Качество: BDRip 1080p
Видео: 1920x800 (2.40:1), AVC, 8044 Kbps, 23.976 fps
Аудио #1: AC3, 2 ch, 192 kbps (Многоголосый закадровый)
Аудио #2: AC3, 2 ch, 192 kbps (Дубляж)
Аудио #3: AC3, 6 ch, 640 Kbps (Английский)
Субтитры: Английские
Главы: Есть

Семпл

MediaInfo

Общее
Уникальный идентификатор : 205645386243519125617095266899120250795 (0x9AB5DC58BED21F0499975021B40E5FAB)
Полное имя : D:1973 - Magnum Force?2.Magnum.Force.1973.BDRip.1080p.mkv
Формат : Matroska
Версия формата : Version 2
Размер файла : 7,77 Гбайт
Продолжительность : 2 ч. 2 м.
Общий поток : 9071 Кбит/сек
Название фильма : Высшая сила Magnum Force (1973)
Дата кодирования : UTC 2013-03-27 18:00:43
Программа кодирования : mkvmerge v5.8.0 ('No Sleep / Pillow') built on Sep 2 2012 15:37:04
Библиотека кодирования : libebml v1.2.3 + libmatroska v1.3.0
Видео
Идентификатор : 1
Формат : AVC
Формат/Информация : Advanced Video Codec
Профиль формата : [email protected]
Параметр CABAC формата : Да
Параметр ReFrames формата : 5 кадров
Идентификатор кодека : V_MPEG4/ISO/AVC
Продолжительность : 2 ч. 2 м.
Битрейт : 8044 Кбит/сек
Ширина : 1920 пикселей
Высота : 800 пикселей
Соотношение сторон : 2,40:1
Режим частоты кадров : Постоянный
Частота кадров : 23,976 кадра/сек
Цветовое пространство : YUV
Субдискретизация насыщенности : 4:2:0
Битовая глубина : 8 бит
Тип развёртки : Прогрессивная
Бит/(Пиксели*Кадры) : 0.218
Размер потока : 6,73 Гбайт (87%)
Заголовок : Высшая сила Magnum Force (1973)
Библиотека кодирования : x264 core 129 r2230 1cffe9f
Настройки программы : cabac=1 / ref=5 / deblock=1:-1:-1 / analyse=0x3:0x133 / me=umh / subme=10 / psy=1 / psy_rd=1.00:0.10 / mixed_ref=1 / me_range=32 / chroma_me=1 / trellis=2 / 8x8dct=1 / cqm=0 / deadzone=21,11 / fast_pskip=0 / chroma_qp_offset=-2 / threads=12 / lookahead_threads=2 / sliced_threads=0 / nr=0 / decimate=1 / interlaced=0 / bluray_compat=0 / constrained_intra=0 / bframes=4 / b_pyramid=2 / b_adapt=2 / b_bias=0 / direct=3 / weightb=1 / open_gop=0 / weightp=2 / keyint=240 / keyint_min=23 / scenecut=40 / intra_refresh=0 / rc=2pass / mbtree=0 / bitrate=8044 / ratetol=1.0 / qcomp=0.70 / qpmin=0 / qpmax=69 / qpstep=4 / cplxblur=20.0 / qblur=0.5 / ip_ratio=1.40 / pb_ratio=1.30 / aq=1:1.00
Язык : English
Default : Да
Forced : Нет
Аудио #1
Идентификатор : 2
Формат : AC-3
Формат/Информация : Audio Coding 3
Расширение режима : CM (complete main)
Параметр Endianness формата : Big
Идентификатор кодека : A_AC3
Продолжительность : 2 ч. 2 м.
Вид битрейта : Постоянный
Битрейт : 192 Кбит/сек
Каналы : 2 канала
Расположение каналов : Front: L R
Частота : 48,0 КГц
Битовая глубина : 16 бит
Метод сжатия : С потерями
Размер потока : 168 Мбайт (2%)
Заголовок : Высшая сила Magnum Force (1973).MVO
Язык : Russian
Default : Да
Forced : Нет
Аудио #2
Идентификатор : 3
Формат : AC-3
Формат/Информация : Audio Coding 3
Расширение режима : CM (complete main)
Параметр Endianness формата : Big
Идентификатор кодека : A_AC3
Продолжительность : 2 ч. 2 м.
Вид битрейта : Постоянный
Битрейт : 192 Кбит/сек
Каналы : 2 канала
Расположение каналов : Front: L R
Частота : 48,0 КГц
Битовая глубина : 16 бит
Метод сжатия : С потерями
Размер потока : 168 Мбайт (2%)
Заголовок : Высшая сила Magnum Force (1973).DUB
Язык : Russian
Default : Нет
Forced : Нет
Аудио #3
Идентификатор : 4
Формат : AC-3
Формат/Информация : Audio Coding 3
Расширение режима : CM (complete main)
Параметр Endianness формата : Big
Идентификатор кодека : A_AC3
Продолжительность : 2 ч. 2 м.
Вид битрейта : Постоянный
Битрейт : 640 Кбит/сек
Каналы : 6 каналов
Расположение каналов : Front: L C R, Side: L R, LFE
Частота : 48,0 КГц
Битовая глубина : 16 бит
Метод сжатия : С потерями
Размер потока : 561 Мбайт (7%)
Заголовок : Высшая сила Magnum Force (1973).ENG
Язык : English
Default : Нет
Forced : Нет
Текст
Идентификатор : 5
Формат : UTF-8
Идентификатор кодека : S_TEXT/UTF8
Идентификатор кодека/Информация : UTF-8 Plain Text
Заголовок : Magnum.Force.1973.ENG
Default : Да
Forced : Нет
Меню
00:00:00.000 : en:00:00:00.000
00:02:58.011 : en:00:02:58.011
00:04:49.498 : en:00:04:49.498
00:13:00.780 : en:00:13:00.780
00:16:37.705 : en:00:16:37.705
00:18:35.906 : en:00:18:35.906
00:24:33.305 : en:00:24:33.305
00:30:20.444 : en:00:30:20.444
00:34:22.894 : en:00:34:22.894
00:43:50.837 : en:00:43:50.837
00:47:17.460 : en:00:47:17.460
00:51:56.530 : en:00:51:56.530
00:55:11.183 : en:00:55:11.183
00:58:49.860 : en:00:58:49.860
01:02:20.236 : en:01:02:20.236
01:07:29.045 : en:01:07:29.045
01:11:47.595 : en:01:11:47.595
01:17:11.627 : en:01:17:11.627
01:20:09.555 : en:01:20:09.555
01:26:29.434 : en:01:26:29.434
01:30:10.405 : en:01:30:10.405
01:33:19.677 : en:01:33:19.677
01:37:13.453 : en:01:37:13.453
01:42:13.669 : en:01:42:13.669
01:49:16.300 : en:01:49:16.300
01:54:36.495 : en:01:54:36.495
01:56:43.330 : en:01:56:43.330
01:57:41.137 : en:01:57:41.137

Скриншоты

[Цитировать]



Показать сообщения:    

Текущее время: 05-Дек 05:24

Часовой пояс: UTC + 3


Вы не можете начинать темы
Вы не можете отвечать на сообщения
Вы не можете редактировать свои сообщения
Вы не можете удалять свои сообщения
Вы не можете голосовать в опросах
Вы не можете прикреплять файлы к сообщениям
Вы не можете скачивать файлы

!ВНИМАНИЕ!
Сайт не предоставляет электронные версии произведений, а занимается лишь коллекционированием и каталогизацией ссылок, присылаемых и публикуемых на форуме нашими читателями. Если вы являетесь правообладателем какого-либо представленного материала и не желаете, чтобы ссылка на него находилась в нашем каталоге, свяжитесь с нами, и мы незамедлительно удалим ее. Файлы для обмена на трекере предоставлены пользователями сайта, и администрация не несет ответственности за их содержание. Просьба не заливать файлы, защищенные авторскими правами, а также файлы нелегального содержания!