[ Today is free to download without increasing Download ]

DL-List and Torrent activity
-Жизнь Пи / Life of Pi (2012) BDRip
«Поверь в невозможное»
-Русское название: Жизнь Пи
Оригинальное название: Life of Pi
Год выпуска: 2012
Производство: США, Тайвань
Жанр: Фэнтези, Драма, Приключения
Перевод: Профессиональный (дублированный) |Лицензия|
Cубтитры: русские (форсированные, на французскую и индийскую речь) (вшитые)-Дата мировой премьеры: 28 сентября 2012
Дата российской премьеры: 1 января 2013, «Двадцатый Век Фокс СНГ»
Дата выхода DVD/Blu-Ray релиза: 4 апреля 2013, «Двадцатый Век Фокс СНГ»-Режиссер: Энг Ли / Ang Lee
Актеры: Сурадж Шарма, Ирфан Кхан, Табу, Рейф Сполл, Жерар Депардье, Аюш Тандон, Гаутам Белур, Адиль Хуссэйн, Аян Кхан, Мохд Аббас Халили, Джеймс Саито-Описание фильма:
Главный герой фильма оказывается на шлюпке посреди океана в компании неожиданного попутчика — грозного бенгальского тигра.- -Релиз от:
Продолжительность: 02:06:59
Качество видео: BDRip |исходник: BD-Remux -BLUEBIRD|
Формат: AVI
Видео: 688x368 (1.85:1), 23.976 fps, XviD 65 ~1446 kbps avg, 0.238 bit/pixel
Аудио: 48 kHz, AC3 Dolby Digital, 2/0 (L,R) ch, 192.00 kbps Constant |Дубляж|
Скачать: Сэмпл


Complete name : Zhizn.Pi.2012.D.BDRip.1.45GB_by_Yarmak23.avi
Format : AVI
Format/Info : Audio Video Interleave
File size : 1.46 GiB
Duration : 2h 6mn
Overall bit rate : 1 648 Kbps
Writing application : VirtualDubModRus (build 2542/release)
Writing library : VirtualDubMod build 2542/release
ID : 0
Format : MPEG-4 Visual
Format profile : Advanced Simple@L5
Format settings, BVOP : 1
Format settings, QPel : No
Format settings, GMC : No warppoints
Format settings, Matrix : Custom
Codec ID : XVID
Codec ID/Hint : XviD
Duration : 2h 6mn
Bit rate : 1 446 Kbps
Width : 688 pixels
Height : 368 pixels
Display aspect ratio : 1.85:1
Frame rate : 23.976 fps
Color space : YUV
Chroma subsampling : 4:2:0
Bit depth : 8 bits
Scan type : Progressive
Compression mode : Lossy
Bits/(Pixel*Frame) : 0.238
Stream size : 1.28 GiB (88%)
Writing library : XviD 65
ID : 1
Format : AC-3
Format/Info : Audio Coding 3
Mode extension : CM (complete main)
Format settings, Endianness : Big
Codec ID : 2000
Duration : 2h 6mn
Bit rate mode : Constant
Bit rate : 192 Kbps
Channel(s) : 2 channels
Channel positions : Front: L R
Sampling rate : 48.0 KHz
Bit depth : 16 bits
Compression mode : Lossy
Stream size : 174 MiB (12%)
Alignment : Split accross interleaves
Interleave, duration : 42 ms (1.00 video frame)
Interleave, preload duration : 500 ms
-Зрителям, достигшим 6 лет-Время раздачи: 24/7 (до 7 скачавших)


Топик был перенесен из форума Новинки кинопроката в форум Фэнтези


Display posts:    

Current time is: 26-Oct 12:27

All times are UTC + 3

You cannot post new topics in this forum
You cannot reply to topics in this forum
You cannot edit your posts in this forum
You cannot delete your posts in this forum
You cannot vote in polls in this forum
You cannot attach files in this forum
You cannot download files in this forum

The site does not give electronic versions of products, and is engaged only in a collecting and cataloguing of the references sent and published at a forum by our readers. If you are the legal owner of any submitted material and do not wish that the reference to it was in our catalogue, contact us and we shall immediately remove her. Files for an exchange on tracker are given by users of a site, and the administration does not bear the responsibility for their maintenance. The request to not fill in the files protected by copyrights, and also files of the illegal maintenance!