[ Сегодня идет свободное скачивание без начисления Download ]


Статистика раздачи
Нет
 
   
 
Top  
 
 
-Цель номер один / Zero Dark Thirty (2012) BDRip--«Десять лет женщина провела в поисках самого опасного в мире человека»-
Русское название: Цель номер один
Оригинальное название: Zero Dark Thirty
Год выпуска: 2012
Производство: США, Annapurna Pictures / Columbia Pictures / First Light Production
Жанр: Триллер, драма, история
Перевод: Дублированный [лицензия]
Субтитры: Вшитые отключаемые
Язык субтитров: Русский, английский (форсированные, полные)
Дата мировой премьеры: 19 декабря 2012
Дата российской премьеры: 21 февраля 2013, «Централ Партнершип»
Дата выхода DVD релиза: 2 апреля 2013, «Флагман-Трейд»
Режиссер: Кэтрин Бигелоу
Актеры: Джессика Честейн, Джейсон Кларк, Джоэл Эдгертон, Дженнифер Или, Марк Стронг, Кайл Чандлер, Эдгар Рамирез, Джеймс Гандольфини, Крис Прэтт, Каллэн Мулвей-Описание фильма:
История одной из операций спецслужб США по поимке «террориста N1» Усамы Бен Ладена.-
Продолжительность: 02:36:59
Качество видео: BDRip 1080p
Видеокодек: MPEG-4 AVC/H.264
Битрейт видео: ~14.6 Мбит/с
Размер кадра: 1920x1038
Аудиокодек: AC3 , DTS
Аудио #1: Русский ( AC3 / 5.1 / 48 kHz / 448 kbps ) - Дубляж
Аудио #2: Английский ( DTS / 5.1 / 48 kHz / 1536 kbps )
-

Награды и номинации


Оскар, 2013 год
Победитель (1):
Лучший монтаж звука
Номинации (4):
Лучший фильм
Лучшая женская роль
(Джессика Честейн)
Лучший сценарий
Лучший монтаж



Золотой глобус, 2013 год
Победитель (1):
Лучшая женская роль (драма) (Джессика Честейн)
Номинации (3):
Лучший фильм (драма)
Лучший режиссер
(Кэтрин Бигелоу)
Лучший сценарий


Премия канала «MTV», 2013 год
Номинации (1):
Лучшая роль в стиле «Напуган до усрачки» (Джессика Честейн)


Британская академия, 2013 год
Номинации (5):
Лучший фильм
Лучшая женская роль
(Джессика Честейн)
Лучший режиссер (Кэтрин Бигелоу)
Лучший оригинальный сценарий
Лучший монтаж



Премия Гильдии актеров, 2013 год
Номинации (1):
Лучшая женская роль (Джессика Честейн)


Сатурн, 2013 год
Номинации (2):
Лучший фильм ужасов / триллер
Лучшая актриса
(Джессика Честейн)
-

MediaInfo

Общее
Уникальный идентификатор : 217849044857498202311336530613347419570 (0xA3E4332BA5255DD4BB8642562F5A05B2)
Полное имя : Цель номер один _ Zero Dark Thirty.2012.BDRip.1080p..mkv
Формат : Matroska
Версия формата : Version 2
Размер файла : 18,5 Гбайт
Продолжительность : 2 ч. 36 м.
Общий поток : 16,9 Мбит/сек
Название фильма : IRONCLUB
Дата кодирования : UTC 2013-03-28 19:27:03
Программа кодирования : mkvmerge v5.2.0 ('I can't explain') built on Dec 18 2011 18:12:03
Библиотека кодирования : libebml v1.2.3 + libmatroska v1.3.0
Видео
Идентификатор : 1
Формат : AVC
Формат/Информация : Advanced Video Codec
Профиль формата : [email protected]
Параметр CABAC формата : Да
Параметр ReFrames формата : 4 кадра
Идентификатор кодека : V_MPEG4/ISO/AVC
Продолжительность : 2 ч. 36 м.
Битрейт : 14,6 Мбит/сек
Ширина : 1920 пикселей
Высота : 1038 пикселей
Соотношение сторон : 1,85:1
Режим частоты кадров : Постоянный
Частота кадров : 23,976 кадра/сек
Цветовое пространство : YUV
Субдискретизация насыщенности : 4:2:0
Битовая глубина : 8 бит
Тип развёртки : Прогрессивная
Бит/(Пиксели*Кадры) : 0.305
Размер потока : 16,0 Гбайт (86%)
Заголовок : Zero Dark Thirty 2012 1080p BluRay x264 EbP
Библиотека кодирования : x264 core 129 r2245 bc13772
Настройки программы : cabac=1 / ref=4 / deblock=1:-3:-3 / analyse=0x3:0x113 / me=tesa / subme=10 / psy=1 / psy_rd=0.95:0.03 / mixed_ref=1 / me_range=16 / chroma_me=1 / trellis=2 / 8x8dct=1 / cqm=0 / deadzone=21,11 / fast_pskip=0 / chroma_qp_offset=-3 / threads=12 / lookahead_threads=2 / sliced_threads=0 / nr=0 / decimate=0 / interlaced=0 / bluray_compat=0 / constrained_intra=0 / bframes=8 / b_pyramid=2 / b_adapt=2 / b_bias=0 / direct=3 / weightb=1 / open_gop=0 / weightp=2 / keyint=250 / keyint_min=23 / scenecut=40 / intra_refresh=0 / rc=crf / mbtree=0 / crf=16.0 / qcomp=0.70 / qpmin=0 / qpmax=69 / qpstep=4 / ip_ratio=1.40 / pb_ratio=1.30 / aq=1:0.60
Язык : English
Default : Да
Forced : Да
Коэффициенты матрицы : BT.709
Аудио #1
Идентификатор : 2
Формат : AC-3
Формат/Информация : Audio Coding 3
Расширение режима : CM (complete main)
Параметр Endianness формата : Big
Идентификатор кодека : A_AC3
Продолжительность : 2 ч. 36 м.
Вид битрейта : Постоянный
Битрейт : 448 Кбит/сек
Каналы : 6 каналов
Расположение каналов : Front: L C R, Side: L R, LFE
Частота : 48,0 КГц
Битовая глубина : 16 бит
Метод сжатия : С потерями
Размер потока : 503 Мбайт (3%)
Заголовок : DD 5.1 @ 448 kbps - Dub, R5
Язык : Russian
Default : Да
Forced : Да
Аудио #2
Идентификатор : 3
Формат : DTS
Формат/Информация : Digital Theater Systems
Идентификатор кодека : A_DTS
Продолжительность : 2 ч. 36 м.
Вид битрейта : Постоянный
Битрейт : 1510 Кбит/сек
Каналы : 6 каналов
Расположение каналов : Front: L C R, Side: L R, LFE
Частота : 48,0 КГц
Битовая глубина : 24 бит
Метод сжатия : С потерями
Размер потока : 1,66 Гбайт (9%)
Заголовок : DTS 5.1 @ 1536 kbps
Язык : English
Default : Нет
Forced : Нет
Текст #1
Идентификатор : 4
Формат : UTF-8
Идентификатор кодека : S_TEXT/UTF8
Идентификатор кодека/Информация : UTF-8 Plain Text
Язык : Russian
Default : Нет
Forced : Нет
Текст #2
Идентификатор : 5
Формат : UTF-8
Идентификатор кодека : S_TEXT/UTF8
Идентификатор кодека/Информация : UTF-8 Plain Text
Заголовок : Forced
Язык : English
Default : Нет
Forced : Нет
Текст #3
Идентификатор : 6
Формат : UTF-8
Идентификатор кодека : S_TEXT/UTF8
Идентификатор кодека/Информация : UTF-8 Plain Text
Язык : English
Default : Нет
Forced : Нет
Меню
00:00:00.000 : en:00:00:00.000
00:09:50.298 : en:00:09:50.298
00:15:42.650 : en:00:15:42.650
00:23:05.884 : en:00:23:05.884
00:31:23.048 : en:00:31:23.048
00:41:35.201 : en:00:41:35.201
00:50:30.694 : en:00:50:30.694
01:04:11.806 : en:01:04:11.806
01:13:37.705 : en:01:13:37.705
01:20:27.656 : en:01:20:27.656
01:34:05.849 : en:01:34:05.849
01:46:46.191 : en:01:46:46.191
01:53:17.332 : en:01:53:17.332
02:02:37.725 : en:02:02:37.725
02:14:08.874 : en:02:14:08.874
02:22:34.588 : en:02:22:34.588
-Скриншоты:




Время раздачи: с 10:00 до 23:00 ежедневно

[Цитировать]

Топик был перенесен из форума Новинки кинопроката (HD Video) в форум Зарубежное кино (HD Video)
Bootch



Показать сообщения:    

Текущее время: 05-Дек 17:39

Часовой пояс: UTC + 3


Вы не можете начинать темы
Вы не можете отвечать на сообщения
Вы не можете редактировать свои сообщения
Вы не можете удалять свои сообщения
Вы не можете голосовать в опросах
Вы не можете прикреплять файлы к сообщениям
Вы не можете скачивать файлы

!ВНИМАНИЕ!
Сайт не предоставляет электронные версии произведений, а занимается лишь коллекционированием и каталогизацией ссылок, присылаемых и публикуемых на форуме нашими читателями. Если вы являетесь правообладателем какого-либо представленного материала и не желаете, чтобы ссылка на него находилась в нашем каталоге, свяжитесь с нами, и мы незамедлительно удалим ее. Файлы для обмена на трекере предоставлены пользователями сайта, и администрация не несет ответственности за их содержание. Просьба не заливать файлы, защищенные авторскими правами, а также файлы нелегального содержания!