[ Сегодня идет свободное скачивание без начисления Download ]


Статистика раздачи
Нет
 
   
 
Top  
 
 
-Глубина / Below (2002) BDRip- Русское название: Глубина
Оригинальное название: Below
Год выпуска: 2002
Выпущено: США, Dimension Films
Жанр: Ужасы, Триллер, Детектив
Описание фильма:
Разгар Второй мировой войны. Американская подводная лодка «Манта», посланная на выручку оставшимся в живых членам экипажа британского плавучего госпиталя, вынуждена скрываться на глубине от шныряющих ближе к поверхности немецких субмарин.
Уходя ближе ко дну, подводники обнаруживают, что там, внизу, есть еще что-то — явно не нацистские судна, нечто необъяснимое и, возможно, сверхъестественное.
Режиссер: Дэвид Туи
Актеры: Мэттью Дэвис, Брюс Гринвуд, Холт МакКэллани, Декстер Флетчер, Ник Чинланд, Оливия Уильямс, Скотт Фоули, Эндрю Ховард, Кристофер Фэйрбэнк, Чак Эллсворт
Продолжительность: 01:45:19
Перевод: Дублированный- -Дата мировой премьеры: 11 октября 2002
Дата российской премьеры: 26 июня 2003, «West»
Дата выхода DVD релиза: 23 апреля 2009, «Мьюзик-Трейд»
Видеокодек: MPEG-4 AVC/H.264
Битрейт видео: ~4430 Кбит/с
Размер кадра: 1280x720
Качество видео: BDRip 720p
Аудио 1: Русский: AC3, 6 ch, 384 Кбит/с
Аудио 2: Английский: DTS, 2 ch, 1510 Кбит/с
Субтитры: Отсутствуют
Дополнительно: Сохранены оригинальные чаптеры как на BluRay

MediaInfo:

General
Unique ID : 173383625469243626182613969783912303477 (0x827078BBCF89AC52B29413A878428B75)
Complete name : D:\Video\Movies\Глубина.2002.BDRip 720p.mkv
Format : Matroska
Format version : Version 2
File size : 4.65 GiB
Duration : 1h 45mn
Overall bit rate : 6 316 Kbps
Encoded date : UTC 2013-03-20 12:33:06
Writing application : mkvmerge v4.2.0 ('No Talking') сборка от Jul 28 2010 18:38:23
Writing library : libebml v1.0.0 + libmatroska v1.0.0
Video
ID : 1
Format : AVC
Format/Info : Advanced Video Codec
Format profile : [email protected]
Format settings, CABAC : Yes
Format settings, ReFrames : 5 frames
Muxing mode : Header stripping
Codec ID : V_MPEG4/ISO/AVC
Duration : 1h 45mn
Bit rate : 4 430 Kbps
Width : 1 280 pixels
Height : 720 pixels
Display aspect ratio : 16:9
Frame rate mode : Constant
Frame rate : 23.976 fps
Color space : YUV
Chroma subsampling : 4:2:0
Bit depth : 8 bits
Scan type : Progressive
Bits/(Pixel*Frame) : 0.200
Stream size : 3.16 GiB (68%)
Writing library : x264 core 125 r2208 d9d2288
Encoding settings : cabac=1 / ref=5 / deblock=1:0:0 / analyse=0x3:0x113 / me=umh / subme=8 / psy=1 / psy_rd=1.00:0.00 / mixed_ref=1 / me_range=16 / chroma_me=1 / trellis=1 / 8x8dct=1 / cqm=0 / deadzone=21,11 / fast_pskip=1 / chroma_qp_offset=-2 / threads=12 / lookahead_threads=2 / sliced_threads=0 / nr=0 / decimate=1 / interlaced=0 / bluray_compat=0 / constrained_intra=0 / bframes=3 / b_pyramid=2 / b_adapt=2 / b_bias=0 / direct=3 / weightb=1 / open_gop=0 / weightp=2 / keyint=240 / keyint_min=24 / scenecut=40 / intra_refresh=0 / rc_lookahead=50 / rc=2pass / mbtree=1 / bitrate=4430 / ratetol=1.0 / qcomp=0.60 / qpmin=0 / qpmax=69 / qpstep=4 / cplxblur=20.0 / qblur=0.5 / ip_ratio=1.40 / aq=1:1.00
Language : English
Default : Yes
Forced : No
Audio #1
ID : 2
Format : AC-3
Format/Info : Audio Coding 3
Mode extension : CM (complete main)
Format settings, Endianness : Big
Muxing mode : Header stripping
Codec ID : A_AC3
Duration : 1h 45mn
Bit rate mode : Constant
Bit rate : 384 Kbps
Channel(s) : 6 channels
Channel positions : Front: L C R, Side: L R, LFE
Sampling rate : 48.0 KHz
Bit depth : 16 bits
Compression mode : Lossy
Delay relative to video : 16ms
Stream size : 289 MiB (6%)
Title : Dub AC3 6ch
Language : Russian
Default : Yes
Forced : No
Audio #2
ID : 3
Format : DTS
Format/Info : Digital Theater Systems
Mode : 16
Format settings, Endianness : Big
Muxing mode : Header stripping
Codec ID : A_DTS
Duration : 1h 45mn
Bit rate mode : Constant
Bit rate : 1 509 Kbps
Channel(s) : 2 channels
Channel positions : Front: L R
Sampling rate : 48.0 KHz
Bit depth : 24 bits
Compression mode : Lossy
Delay relative to video : 11ms
Stream size : 1.11 GiB (24%)
Language : English
Default : No
Forced : No
Menu
00:00:00.000 : en:00:00:00.000
00:06:36.396 : en:00:06:36.396
00:12:52.689 : en:00:12:52.689
00:19:55.194 : en:00:19:55.194
00:27:02.830 : en:00:27:02.830
00:33:47.025 : en:00:33:47.025
00:39:25.363 : en:00:39:25.363
00:44:08.771 : en:00:44:08.771
00:51:59.116 : en:00:51:59.116
01:01:03.660 : en:01:01:03.660
01:07:52.694 : en:01:07:52.694
01:14:27.421 : en:01:14:27.421
01:27:50.474 : en:01:27:50.474
01:32:31.087 : en:01:32:31.087
01:35:45.740 : en:01:35:45.740

Рецензия, отзыв о фильме

Во мраке…
Много ли мы знаем о второй мировой, которая бушевала в океане? В принципе достаточно, что бы сложилось цельное впечатление о трудностях, невзгодах и героизме подводников. Такие ленты как: Ю-571, и многие другие многое нам поведали. Но эти фильмы были зажаты в плотных рамках борьбы с фашизмом и его безжалостными сторонниками.
В Глубине же добавилась и потусторонняя тема, незаслуженно игнорируемая многими режиссерами. Да так удачно, что от этого красочного полотна не оторвать глаз!
Этот военный, по настоящему напряженный триллер захватывает с первых минут и не отпускает до конечных титров. Главные герои борются не только с нацистской заразой, но и с собой, своими страхами, предрассудками. До последнего не веря, что на субмарине присутствует еще кто-то, (или что-то) кроме них. Эта мысль не дает им покоя, и правда лежащая на поверхности кроется в оболочке самообмана и самоуспокоения.
В фильме масса тайн, интересных диалогов и предостаточно грамотных сюжетных ходов, что-бы увлечь зрителя. К этому хочется добавить и бесподобный кастинг. Вообще же кажется, что все по делу и все на своих местах.
10 из 10

Интересно:

Рабочее название картины — «Протей» (Proteus).
Съемки проходили на озере Мичиган (штат Иллинойс), а также в студийных павильонах в Великобритании.
Первоначальным режиссером фильма являлся Дарен Аронофски (Darren Aronofsky), который начал подготовку к съемкам еще в 1999 году, но затем он бросил это проект ради картины «Реквием по мечте» (Requiem for a Dream, 2000).
Песня, звучащая из злосчастного граммофона на борту подлодки должна была быть «I`ll Be Seeing You» Фрэнка Синатры (Frank Sinatra), но из-за проблем с авторскими правами ее заменили на «Sing Sing Sing (With a Swing)» Бенни Гудмана (Benny Goodman).
Некоторые сцены снимались на настоящей подлодке времен второй мировой войны — «Silversides», стоящей на приколе в городе Маскигон (штат Мичиган) в качестве музейного экспоната. Ее переправили на озеро Мичиган и перекрасили в тусклую краску с ржавчиной для придания правдоподобности, а после съемок восстановили ее первоначальный вид.
Скриншоты:

Время раздачи: 24/7 - круглосуточно

[Цитировать]



Показать сообщения:    

Текущее время: 05-Дек 11:34

Часовой пояс: UTC + 3


Вы не можете начинать темы
Вы не можете отвечать на сообщения
Вы не можете редактировать свои сообщения
Вы не можете удалять свои сообщения
Вы не можете голосовать в опросах
Вы не можете прикреплять файлы к сообщениям
Вы не можете скачивать файлы

!ВНИМАНИЕ!
Сайт не предоставляет электронные версии произведений, а занимается лишь коллекционированием и каталогизацией ссылок, присылаемых и публикуемых на форуме нашими читателями. Если вы являетесь правообладателем какого-либо представленного материала и не желаете, чтобы ссылка на него находилась в нашем каталоге, свяжитесь с нами, и мы незамедлительно удалим ее. Файлы для обмена на трекере предоставлены пользователями сайта, и администрация не несет ответственности за их содержание. Просьба не заливать файлы, защищенные авторскими правами, а также файлы нелегального содержания!