[ Сегодня идет свободное скачивание без начисления Download ]


Статистика раздачи
Нет
 
   
 
Top  
 
 
- Сумерки / Twilight (2008) - «Запретный плод сладок»- Русское название: Сумерки
Оригинальное название: Twilight
Год выпуска: 2008
Производство: США
Жанр: фэнтези, драма, мелодрама, приключения
Перевод: Дубляж
Субтитры: Отсутствуют
Дата мировой премьеры: 7 ноября 2008
Дата российской премьеры: 20 ноября 2008, «West»
Дата выхода DVD релиза: 7 апреля 2009, «West Video»
Режиссер: Кэтрин Хардвик
Продюсер: Вик Годфри, Грег Мурадиан, Марк Морган
Актеры: Кристен Стюарт, Роберт Паттинсон, Мэтт Бушнелл, Билли Бурк, Келлан Латс, Сара Кларк, Джил Бирмингем, Кэм Жиганде, Тэйлор Лотнер, Никки Рид, Анна Кендрик, Грегори Тайри Бойс, Джастин Чон, Майкл Уэлш, Кристиан Серратос, Эшли Грин, Джексон Рэтбоун, Хосе Суньига, Триш Иган, Айанна Беркшир, Нед Беллами, Брик Флинт-Соммервилл, Питер Фасинелли, Соломон Тримбл, Рашель Лефевр, Эди Гатеги, Александр Менделюк, Хантер Джексон, Гэвин Бристоль, Шон МакГрат, Кэти Пауэрс, Элизабет Ризер, Катерин Гримм, Кейли Алиссано, Уильям Джозеф Элк III, Виктория Гейл, Стефани Майер
Описание фильма:
В четвертой части Белла Свон оказывается перед непростым выбором — сохранить жизнь себе или своему ребенку (наполовину вампиру, наполовину человеку). Она решает оставить малыша, но Эдвард и остальные члены семьи Каллен категорически против.
Помощи Белле ждать не от кого, но она приходит неожиданно, от того, от кого её совсем не ждали. Вдвоем Белла и Розали пытаются сохранить жизнь малышу, даже не догадываясь, к каким ужасающим последствиям это приведет.- -Автор рипа: Scarabey
Продолжительность: 02:01:50
Качество видео: НDRip
Видеокодек: XviD
Битрейт видео: ~ 1503 Кбит/сек
Размер кадра: 720x304 (2.37:1)
Аудио: AC3, 2 ch, ~192.00 kbps
-

MI

Общее
Полное имя                               : E:\Загрузка\Сумерки\Sumerki_2008_HDRip.avi
Формат                                   : AVI
Формат/Информация                        : Audio Video Interleave
Размер файла                             : 1,45 Гбайт
Продолжительность                        : 2 ч. 1 м.
Общий поток                              : 1705 Кбит/сек
Программа кодирования                    : VirtualDubMod 1.5.10.2 (build 2540/release)
Библиотека кодирования                   : VirtualDubMod build 2540/release
Видео
Идентификатор                            : 0
Формат                                   : MPEG-4 Visual
Профиль формата                          : Advanced Simple@L5
Параметр BVOP формата                    : 1
Параметр QPel формата                    : Нет
Параметр GMC формата                     : Без точки перехода
Параметр матрицы формата                 : Выборочная
Идентификатор кодека                     : XVID
Идентификатор кодека/Подсказка           : XviD
Продолжительность                        : 2 ч. 1 м.
Битрейт                                  : 1504 Кбит/сек
Ширина                                   : 720 пикселей
Высота                                   : 304 пикселя
Соотношение сторон                       : 2,35:1
Частота кадров                           : 23,976 кадра/сек
Цветовое пространство                    : YUV
Субдискретизация насыщенности            : 4:2:0
Битовая глубина                          : 8 бит
Тип развёртки                            : Прогрессивная
Метод сжатия                             : С потерями
Бит/(Пиксели*Кадры)                      : 0.287
Размер потока                            : 1,28 Гбайт (88%)
Библиотека кодирования                   : XviD 1.2.1 (UTC 2008-12-04)
Аудио
Идентификатор                            : 1
Формат                                   : AC-3
Формат/Информация                        : Audio Coding 3
Расширение режима                        : CM (complete main)
Параметр Endianness формата              : Big
Идентификатор кодека                     : 2000
Продолжительность                        : 2 ч. 1 м.
Вид битрейта                             : Постоянный
Битрейт                                  : 192 Кбит/сек
Каналы                                   : 2 канала
Расположение каналов                     : Front: L R
Частота                                  : 48,0 КГц
Битовая глубина                          : 16 бит
Метод сжатия                             : С потерями
Размер потока                            : 167 Мбайт (11%)
Выравнивание                             : Разделение по промежуткам
Продолжительность промежутка             : 42  мс. (1,00 видеокадр)
Время предзагрузки промежутка            : 500  мс.
-Cкриншоты из фильма:
- Сумерки. Сага. Новолуние / The Twilight Saga: New Moon (2009) - «It will be as if I'd never existed.»- Русское название: Сумерки. Сага. Новолуние
Оригинальное название: The Twilight Saga: New Moon
Год выпуска: 2009
Производство: США
Жанр: фэнтези, драма, мелодрама, приключения
Перевод: Дубляж
Субтитры: Отсутствуют
Дата мировой премьеры: 16 ноября 2009
Дата российской премьеры: 19 ноября 2009, «West»
Дата выхода DVD релиза: 24 марта 2010, «West Video»
Режиссер: Крис Вайц
Продюсер: Карен Розенфельт, Вик Годфри, Билл Баннерман
Актеры: Кристен Стюарт, Тэйлор Лотнер, Роберт Паттинсон, Билли Бурк, Эшли Грин, Анна Кендрик, Кристиан Серратос, Майкл Уэлш, Джастин Чон, Кристина Ястржембска, Джексон Рэтбоун, Расселл Робертс, Майкл Шин, Джейми Кэмпбелл Бауэр, Кристофер Хейердал, Питер Фасинелли, Кертис Караваджо, Дэниэл Кадмор, Чарли Бьюли, Рашель Лефевр, Элизабет Ризер, Келлан Латс, Никки Рид, Чэск Спенсер, Джил Бирмингем, Грэм Грин, Эдриан Дорваль, Майкл Адамуэйт, Александр Менделюк, Хантер Джексон, Гэвин Бристоль, Шон МакГрат, Кайова Гордон, Нут Сиир
Описание фильма:
Влюбиться в вампира — страшно и романтично. Но потерять любимого, решившего ценой разрыва спасти свою девушку от роли пешки в вечном противостоянии кланов «ночных охотников», — это просто невыносимо. Белла Свон мучительно переживает исчезновение Эдварда и безуспешно ищет забвения в дружбе с мальчишкой-индейцем Джейкобом Блэком. Она даже не подозревает, что её лучший друг — порождение ещё одного «народа Тьмы». Народа, куда более жестокого и опасного, чем аристократы-вампиры…- -Автор рипа: Scarabey
Продолжительность: 02:10:38
Качество видео: НDRip
Видеокодек: XviD
Битрейт видео: ~ 1356 Кбит/сек
Размер кадра: 720x304 (2.37:1)
Аудио: AC3, 2 ch, ~192.00 kbps
-

MI

Общее
Полное имя                               : E:\Загрузка\Сумерки\Sumerki_Saga_Novolunie_2009_HDRip.avi
Формат                                   : AVI
Формат/Информация                        : Audio Video Interleave
Размер файла                             : 1,42 Гбайт
Продолжительность                        : 2 ч. 10 м.
Общий поток                              : 1558 Кбит/сек
Программа кодирования                    : VirtualDubMod 1.5.10.2 (build 2540/release)
Библиотека кодирования                   : VirtualDub build 32842/release
Видео
Идентификатор                            : 0
Формат                                   : MPEG-4 Visual
Профиль формата                          : Advanced Simple@L5
Параметр BVOP формата                    : 1
Параметр QPel формата                    : Нет
Параметр GMC формата                     : Без точки перехода
Параметр матрицы формата                 : Выборочная
Идентификатор кодека                     : XVID
Идентификатор кодека/Подсказка           : XviD
Продолжительность                        : 2 ч. 10 м.
Битрейт                                  : 1356 Кбит/сек
Ширина                                   : 720 пикселей
Высота                                   : 304 пикселя
Соотношение сторон                       : 2,35:1
Частота кадров                           : 23,976 кадра/сек
Цветовое пространство                    : YUV
Субдискретизация насыщенности            : 4:2:0
Битовая глубина                          : 8 бит
Тип развёртки                            : Прогрессивная
Метод сжатия                             : С потерями
Бит/(Пиксели*Кадры)                      : 0.258
Размер потока                            : 1,24 Гбайт (87%)
Библиотека кодирования                   : XviD 1.2.1 (UTC 2008-12-04)
Аудио
Идентификатор                            : 1
Формат                                   : AC-3
Формат/Информация                        : Audio Coding 3
Расширение режима                        : CM (complete main)
Параметр Endianness формата              : Big
Идентификатор кодека                     : 2000
Продолжительность                        : 2 ч. 10 м.
Вид битрейта                             : Постоянный
Битрейт                                  : 192 Кбит/сек
Каналы                                   : 2 канала
Расположение каналов                     : Front: L R
Частота                                  : 48,0 КГц
Битовая глубина                          : 16 бит
Метод сжатия                             : С потерями
Задержка видео                           : 2 с. 0 мс.
Размер потока                            : 179 Мбайт (12%)
Выравнивание                             : Разделение по промежуткам
Продолжительность промежутка             : 42  мс. (1,00 видеокадр)
Время предзагрузки промежутка            : 500  мс.
-Cкриншоты из фильма:
- Сумерки. Сага. Затмение / The Twilight Saga: Eclipse (2010) -«Все начинается с выбора...»- Русское название: Сумерки. Сага. Затмение
Оригинальное название: The Twilight Saga: Eclipse
Год выпуска: 2010
Производство: США
Жанр: фэнтези, драма, мелодрама, приключения
Перевод: Дубляж
Субтитры: Отсутствуют
Дата мировой премьеры: 24 июня 2010
Дата российской премьеры: 30 июня 2010, «West»
Дата выхода DVD релиза: 7 декабря 2010, «West Video»
Режиссер: Дэвид Слэйд
Продюсер: Вик Годфри, Грег Мурадиан, Карен Розенфельт
Актеры: Кристен Стюарт, Роберт Паттинсон, Тэйлор Лотнер, Эшли Грин, Келлан Латс, Питер Фасинелли, Брайс Даллас Ховард, Никки Рид, Ксавьер Сэмюэл, Билли Берк, Алекс Мераз, Чарли Бьюли
Описание фильма:
Сиэтл охвачен чередой таинственных убийств, а обуреваемая жаждой мести вампирша продолжает поиски Беллы, снова оказавшейся в смертельной опасности. Кроме того, находясь в эпицентре всех событий, Белла вынуждена делать выбор между любовью к Эдварду и дружбой с Джейкобом, зная что ее решение может послужить толчком к возобновлению давнего противостояния между вампирами и оборотнями. Помимо всего прочего, ей предстоит принять еще одно важное решение: жизнь или смерть, ведь окончание средней школы уже не за горами.- -Автор рипа: Scarabey
Продолжительность: 02:10:38
Качество видео: НDRip
Видеокодек: XviD
Битрейт видео: ~ 1351 Кбит/сек
Размер кадра: 720x304 (2.37:1)
Аудио: AC3, 2 ch, ~192.00 kbps
-

MI

Общее
Полное имя                               : E:\Загрузка\Сумерки\Sumerki_Saga_Zatmenie_HDRip.avi
Формат                                   : AVI
Формат/Информация                        : Audio Video Interleave
Размер файла                             : 1,45 Гбайт
Продолжительность                        : 2 ч. 3 м.
Общий поток                              : 1676 Кбит/сек
Программа кодирования                    : VirtualDubMod 1.5.10.2 (build 2540/release)
Библиотека кодирования                   : VirtualDubMod build 2540/release
Видео
Идентификатор                            : 0
Формат                                   : MPEG-4 Visual
Профиль формата                          : Advanced Simple@L5
Параметр BVOP формата                    : 1
Параметр QPel формата                    : Нет
Параметр GMC формата                     : Без точки перехода
Параметр матрицы формата                 : Выборочная
Идентификатор кодека                     : XVID
Идентификатор кодека/Подсказка           : XviD
Продолжительность                        : 2 ч. 3 м.
Битрейт                                  : 1475 Кбит/сек
Ширина                                   : 720 пикселей
Высота                                   : 304 пикселя
Соотношение сторон                       : 2,35:1
Частота кадров                           : 23,976 кадра/сек
Цветовое пространство                    : YUV
Субдискретизация насыщенности            : 4:2:0
Битовая глубина                          : 8 бит
Тип развёртки                            : Прогрессивная
Метод сжатия                             : С потерями
Бит/(Пиксели*Кадры)                      : 0.281
Размер потока                            : 1,28 Гбайт (88%)
Библиотека кодирования                   : XviD 1.2.1 (UTC 2008-12-04)
Аудио
Идентификатор                            : 1
Формат                                   : AC-3
Формат/Информация                        : Audio Coding 3
Расширение режима                        : CM (complete main)
Параметр Endianness формата              : Big
Идентификатор кодека                     : 2000
Продолжительность                        : 2 ч. 3 м.
Вид битрейта                             : Постоянный
Битрейт                                  : 192 Кбит/сек
Каналы                                   : 2 канала
Расположение каналов                     : Front: L R
Частота                                  : 48,0 КГц
Битовая глубина                          : 16 бит
Метод сжатия                             : С потерями
Размер потока                            : 170 Мбайт (11%)
Выравнивание                             : Разделение по промежуткам
Продолжительность промежутка             : 42  мс. (1,00 видеокадр)
Время предзагрузки промежутка            : 500  мс.
-Cкриншоты из фильма:
- Сумерки. Сага. Рассвет: Часть 1 / The Twilight Saga: Breaking Dawn - Part 1(2011) -«Вечность - это только начало»- Русское название: Сумерки. Сага. Рассвет: Часть 1
Оригинальное название: The Twilight Saga: Breaking Dawn - Part 1
Год выпуска: 2011
Производство: США
Жанр: фэнтези, драма, мелодрама, приключения
Перевод: Дубляж
Субтитры: Отсутствуют
Дата мировой премьеры: 30 октября 2011
Дата российской премьеры: 17 ноября 2011, «West»
Дата выхода DVD релиза: 14 февраля 2012, «West Video»
Режиссер: Билл Кондон
Продюсер: Вик Годфри, Стефани Майер, Карен Розенфельт
Актеры: Кристен Стюарт, Роберт Паттинсон, Тэйлор Лотнер, Билли Бёрк, Питер Фачинелли, Элизабет Ризер, Келлан Латс, Никки Рид, Джексон Рэтбоун, Эшли Грин, Джил Бирмингем, Сара Кларк, Ти Олссон, Кристиан Слоун, Джеймс Пиццинато, Йен Хэрмон, Гэбриел Картер, Анна Кендрик, Кристиан Серратос, Джастин Чон, Майкл Уэлш, Майкл Шин, Кристофер Хейердал, Джейми Кэмпбелл Бауэр, Кристиан Камарго, Миа Маэстро, Мэгги Грэйс, МайАнна Бёринг, Кэйси ЛаБоу, Анджело Ренай, Бу Бу Стюарт, Алекс Райс, Пол Бекер, Стефани Моусли, Кайова Гордон, Тайсон Хаусмен, Чэск Спенсер, Бронсон Пеллетье, Алекс Мераз, Джулия Джонс, Тинсел Кори,
Описание фильма:
В четвертой части Белла Свон оказывается перед непростым выбором — сохранить жизнь себе или своему ребенку (наполовину вампиру, наполовину человеку). Она решает оставить малыша, но Эдвард и остальные члены семьи Каллен категорически против. Помощи Белле ждать не от кого, но она приходит неожиданно, от того, от кого её совсем не ждали. Вдвоем Белла и Розали пытаются сохранить жизнь малышу, даже не догадываясь, к каким ужасающим последствиям это приведет.- -Автор рипа: Scarabey
Продолжительность: 01:57:08
Качество видео: НDRip
Видеокодек: XviD
Битрейт видео: ~ 1316 Кбит/сек
Размер кадра: 720x304 (2.37:1)
Аудио: AC3, 6 ch, ~384.00 kbps
-

MI

Общее
Полное имя                               : E:\Загрузка\Сумерки\Sumerki_Saga_Rassvet_1_HDRip.avi
Формат                                   : AVI
Формат/Информация                        : Audio Video Interleave
Размер файла                             : 1,40 Гбайт
Продолжительность                        : 1 ч. 57 м.
Общий поток                              : 1710 Кбит/сек
Программа кодирования                    : VirtualDubMod 1.5.10.2 (build 2540/release)
Библиотека кодирования                   : VirtualDubMod build 2540/release
Видео
Идентификатор                            : 0
Формат                                   : MPEG-4 Visual
Профиль формата                          : Advanced Simple@L5
Параметр BVOP формата                    : 1
Параметр QPel формата                    : Нет
Параметр GMC формата                     : Без точки перехода
Параметр матрицы формата                 : Выборочная
Идентификатор кодека                     : XVID
Идентификатор кодека/Подсказка           : XviD
Продолжительность                        : 1 ч. 57 м.
Битрейт                                  : 1317 Кбит/сек
Ширина                                   : 720 пикселей
Высота                                   : 304 пикселя
Соотношение сторон                       : 2,35:1
Частота кадров                           : 23,976 кадра/сек
Цветовое пространство                    : YUV
Субдискретизация насыщенности            : 4:2:0
Битовая глубина                          : 8 бит
Тип развёртки                            : Прогрессивная
Метод сжатия                             : С потерями
Бит/(Пиксели*Кадры)                      : 0.251
Размер потока                            : 1,08 Гбайт (77%)
Библиотека кодирования                   : XviD 1.2.1 (UTC 2008-12-04)
Аудио
Идентификатор                            : 1
Формат                                   : AC-3
Формат/Информация                        : Audio Coding 3
Расширение режима                        : CM (complete main)
Параметр Endianness формата              : Big
Идентификатор кодека                     : 2000
Продолжительность                        : 1 ч. 57 м.
Вид битрейта                             : Постоянный
Битрейт                                  : 384 Кбит/сек
Каналы                                   : 6 каналов
Расположение каналов                     : Front: L C R, Side: L R, LFE
Частота                                  : 48,0 КГц
Битовая глубина                          : 16 бит
Метод сжатия                             : С потерями
Размер потока                            : 322 Мбайт (22%)
Выравнивание                             : Разделение по промежуткам
Продолжительность промежутка             : 42  мс. (1,00 видеокадр)
Время предзагрузки промежутка            : 500  мс.
-Cкриншоты из фильма:
- Сумерки. Сага. Рассвет: Часть 2 / The Twilight Saga: Breaking Dawn - Part 2(2012) -«Грандиозный финал бессмертной саги»- Русское название: Сумерки. Сага. Рассвет: Часть 2
Оригинальное название: The Twilight Saga: Breaking Dawn - Part 2
Год выпуска: 2012
Производство: США
Жанр: фэнтези, драма, мелодрама, приключения
Перевод: Дубляж
Субтитры: Отсутствуют
Дата мировой премьеры: 14 ноября 2012
Дата российской премьеры: 15 ноября 2012, «West»
Дата выхода DVD релиза: 5 марта 2013, «West Video»
Режиссер: Билл Кондон
Продюсер: Вик Годфри, Стефани Майер, Карен Розенфельт
Актеры: Кристен Стюарт, Роберт Паттинсон, Тэйлор Лотнер, Питер Фачинелли, Элизабет Ризер, Эшли Грин, Джексон Рэтбоун, Келлан Латс, Никки Рид, Билли Бёрк
Описание фильма:
Белла, став вампиром, постепенно свыкается со своей новой природой. В этом ей помогают Эдвард и остальные члены семьи Калленов. К тому же теперь у Беллы есть дочь Ренесми и вечность впереди. Джейкоб, запечатленный с Ренесми, становится для девочки другом и наставником. Ненадолго для героев наступают спокойные, счастливые дни. Все заканчивается, когда вести о Ренесми доходят до Вольтури. «Обращение» детей строго запрещено в мире вампиров. Не зная о необычном происхождении Ренесми, Вольтури собирают армию и направляются в Форкс, чтобы уничтожить Калленов.- -Продолжительность: 01:55:12
Качество видео: HDRip
Видеокодек: XviD
Битрейт видео: ~ 1345 Кбит/сек
Размер кадра: 720x304 (2.37:1)
Аудио: AC3, 6 ch., 48 kHz, ~448.00 kbps
-

MI

Общее
Полное имя                               : E:\Загрузка\Сумерки\Sumerki_Saga_Rassvet_path_2_HDRip.avi
Формат                                   : AVI
Формат/Информация                        : Audio Video Interleave
Размер файла                             : 1,45 Гбайт
Продолжительность                        : 1 ч. 55 м.
Общий поток                              : 1803 Кбит/сек
Программа кодирования                    : VirtualDubMod 1.5.10.2 (build 2540/release)
Библиотека кодирования                   : VirtualDubMod build 2540/release
Видео
Идентификатор                            : 0
Формат                                   : MPEG-4 Visual
Профиль формата                          : Advanced Simple@L5
Параметр BVOP формата                    : 1
Параметр QPel формата                    : Нет
Параметр GMC формата                     : Без точки перехода
Параметр матрицы формата                 : Выборочная
Идентификатор кодека                     : XVID
Идентификатор кодека/Подсказка           : XviD
Продолжительность                        : 1 ч. 55 м.
Битрейт                                  : 1346 Кбит/сек
Ширина                                   : 720 пикселей
Высота                                   : 304 пикселя
Соотношение сторон                       : 2,35:1
Частота кадров                           : 23,976 кадра/сек
Цветовое пространство                    : YUV
Субдискретизация насыщенности            : 4:2:0
Битовая глубина                          : 8 бит
Тип развёртки                            : Прогрессивная
Метод сжатия                             : С потерями
Бит/(Пиксели*Кадры)                      : 0.256
Размер потока                            : 1,08 Гбайт (75%)
Библиотека кодирования                   : XviD 1.2.1 (UTC 2008-12-04)
Аудио
Идентификатор                            : 1
Формат                                   : AC-3
Формат/Информация                        : Audio Coding 3
Расширение режима                        : CM (complete main)
Параметр Endianness формата              : Big
Идентификатор кодека                     : 2000
Продолжительность                        : 1 ч. 55 м.
Вид битрейта                             : Постоянный
Битрейт                                  : 448 Кбит/сек
Каналы                                   : 6 каналов
Расположение каналов                     : Front: L C R, Side: L R, LFE
Частота                                  : 48,0 КГц
Битовая глубина                          : 16 бит
Метод сжатия                             : С потерями
Размер потока                            : 369 Мбайт (25%)
Выравнивание                             : Разделение по промежуткам
Продолжительность промежутка             : 42  мс. (1,00 видеокадр)
Время предзагрузки промежутка            : 500  мс.
-Cкриншоты из фильма:
-Приятного просмотра
и не забываем говорить СПАСИБО...
-Время раздачи: 24/7
до 15 скачавших..

[Цитировать]



Показать сообщения:    

Текущее время: 10-Дек 17:49

Часовой пояс: UTC + 3


Вы не можете начинать темы
Вы не можете отвечать на сообщения
Вы не можете редактировать свои сообщения
Вы не можете удалять свои сообщения
Вы не можете голосовать в опросах
Вы не можете прикреплять файлы к сообщениям
Вы не можете скачивать файлы

!ВНИМАНИЕ!
Сайт не предоставляет электронные версии произведений, а занимается лишь коллекционированием и каталогизацией ссылок, присылаемых и публикуемых на форуме нашими читателями. Если вы являетесь правообладателем какого-либо представленного материала и не желаете, чтобы ссылка на него находилась в нашем каталоге, свяжитесь с нами, и мы незамедлительно удалим ее. Файлы для обмена на трекере предоставлены пользователями сайта, и администрация не несет ответственности за их содержание. Просьба не заливать файлы, защищенные авторскими правами, а также файлы нелегального содержания!