[ Сегодня идет свободное скачивание без начисления Download ]


Статистика раздачи
Нет
 
   
 
Top  
 
 
- КВН-2013. Высшая лига (2013) HDTV [H.264/1080i] - Режиссер / Телекомпания: Первый канал HD
Русское название: КВН
Год выпуска: 2013
Жанр: Телепередача
Ведущий: Александр Масляков.
Жюри: Михаил Галустян, Гарик Сукачев, Юлий Гусман, Михаил Ефремов, Дмитрий Нагиев, Валдис Пельш и др.
Описание:
Что такое КВН, знают, без сомнения, все. В КВН играют во всем мире, это прежде всего молодежная игра. Постоянные конкурсные задания: "Визитная карточка", "Разминка", "Конкурс капитанов", "Музыкальный конкурс", "Домашнее задание". Игру команд оценивает профессиональное жюри — люди, у которых с чувством юмора все в порядке, многие из них раньше сами играли в КВН. Среди членов жюри были Константин Эрнст, Леонид Парфенов, Юлий Гусман, Леонид Ярмольник, Валдис Пельш, Сергей Шолохов, Геннадий Хазанов и другие. Кроме самих игр проводятся ежегодные встречи: фестиваль команд КВН (с 1990 г., семь раз фестиваль проходил в г.Сочи), музыкальный фестиваль КВН, летний кубок КВН, международные товарищеские игры в КВН. Сборная КВН играет со сборными других стран. Уже состоялись игры между сборной КВН и сборными Америки, Австралии, Израиля... Игра в КВН для многих становится профессией, а многие благодаря игре связывают жизнь с искусством. Из КВН "вышли": Леонид Якубович, Михаил Марфин, Татьяна Лазарева, Олег Филимонов, Юлий Гусман и многие другие.
Продолжительность: Каждый выпуск х ~ 02:00:00
Видеокодек: MPEG-TS (AVC)
Битрейт видео: ~7900 kb/s
Размер кадра: 1920 x 1080
Качество видео: HDTV
Аудио 1: MP2, 2ch., 192 kb/s
Аудио 1: AC-3, 2ch., 384 kb/s Продолжительность: ~ 01:49:12
Видеокодек: MPEG-TS (AVC)
Битрейт видео: ~7891 kb/s
Размер кадра: 1920 x 1080
Качество видео: HDTV
Аудио 1: MP2, 2ch., 192 kb/s
Аудио 1: AC-3, 2ch., 384 kb/s

Команды. Подробности.

Жюри: Гарик Сукачев, Валдис Пельш, Дмитрий Нагиев, Михаил Ефремов, Юлий Гусман, Константин Эрнст
Команды:
Днепр: Сборная Днепропетровской области;
Сборная СНГ по вольной борьбе: Сургут;
Ананас: Вязьма;
БГУ: Минск;
Сборная Камызякского края по КВНу: Астраханская область.
Описание:
Тема сезона: КВН уже не тот
Тема игры: Север
Визитка: Абсолютный ноль
Ананас
- усиление перед новым сезоном
- в самолёте Москва-Анталия сразу после duty-free
- молодая пара из Вязьмы элитном магазине одежды
- ВВП покидает Красную Поляну после проверки
БГУ
- вручение аттестатов в школе
- жизненные ситуации
- пианист остался ночью дома один
- в белорусском ресторане
- на собеседовании в очень серьёзную компанию
Сборная СНГ по вольной борьбе
- представление команды
- борцы пришли грабить банк
- борцы на реалити-шоу
- борцы на передаче "Что? Где? Когда?"
Днепр
- разморозка Игоря
- Игорь и Лена 14 февраля
- ездовые хаски на привале
- во дворе спального района в морозный день
Сборная Камызякского края
- в парикмахерской
- в Камызякском шахматном клубе
- в Камызякском суде
- в Камызякской районной поликлинике
Триатлон
Разминочная часть конкурса на этот раз представляет собой вопросы команд друг к другу, ответами на которые команды подготовили зал ко второй, биатлонной части конкурса, в которой стили команд ярко отразились на самих шутках.
Музыкальное Домашнее задание Северное сияние
Сборная Камызякского края
- научно-познавательный спектакль "В поисках северного сияния"
БГУ
- вечеринка на съёмной квартире после предпоследнего замечания
- как бы выглядела Беларусь после переезда туда мировых звёзд
Ананас
- Игорь Корнелюк собирает старую гвардию для самого лучшего концерта
- о северном сиянии
Сборная СНГ по вольной борьбе
- в кафе "Северное сияние"
Днепр
- поход на север
- муж обращается к жене с помощью друзей
- Игорь и Лена разбирают холодильник
- песня о секрете зрительской улыбки

Результаты игры. Не смотреть!!!

Сборная Камызякского края – 11.5, Сборная СНГ по вольной борьбе – 11.2, Днепр – 10.1, Сборная БГУ – 10.0, Ананас – 9.7

MediaInfo

Формат : MPEG-TS
Размер файла : 6,80 Гбайт
Продолжительность : 1 ч. 49 м.
Общий поток : 8913 Кбит/сек
Видео
Идентификатор : 2931 (0xB73)
Идентификатор меню : 1 (0x1)
Формат : AVC
Формат/Информация : Advanced Video Codec
Профиль формата : [email protected]
Параметр CABAC формата : Да
Параметр ReFrames формата : 4 кадра
Идентификатор кодека : 27
Продолжительность : 1 ч. 49 м.
Битрейт : 7891 Кбит/сек
Ширина : 1920 пикселей
Высота : 1080 пикселей
Соотношение сторон : 16:9
Частота кадров : 25,000 кадров/сек
Цветовое пространство : YUV
Субдискретизация насыщенности : 4:2:0
Битовая глубина : 8 бит
Тип развёртки : MBAFF
Бит/(Пиксели*Кадры) : 0.152
Размер потока : 6,02 Гбайт (89%)
Аудио #1
Идентификатор : 2932 (0xB74)
Идентификатор меню : 1 (0x1)
Формат : MPEG Audio
Версия формата : Version 1
Профиль формата : Layer 2
Идентификатор кодека : 3
Продолжительность : 1 ч. 49 м.
Вид битрейта : Постоянный
Битрейт : 192 Кбит/сек
Каналы : 2 канала
Частота : 48,0 КГц
Метод сжатия : С потерями
Размер потока : 150 Мбайт (2%)
Язык : Russian
Аудио #2
Идентификатор : 2933 (0xB75)
Идентификатор меню : 1 (0x1)
Формат : AC-3
Формат/Информация : Audio Coding 3
Расширение режима : CM (complete main)
Идентификатор кодека : 129
Продолжительность : 1 ч. 49 м.
Вид битрейта : Постоянный
Битрейт : 384 Кбит/сек
Каналы : 2 канала
Расположение каналов : Front: L R
Частота : 48,0 КГц
Битовая глубина : 16 бит
Метод сжатия : С потерями
Размер потока : 300 Мбайт (4%)
Язык : Russian
Текст
Идентификатор : 2934 (0xB76)-888
Идентификатор меню : 1 (0x1)
Формат : Teletext Subtitle
Язык : Russian
Скриншоты: Продолжительность: ~ 01:52:55
Видеокодек: MPEG-TS (AVC)
Битрейт видео: ~7877 kb/s
Размер кадра: 1920 x 1080
Качество видео: HDTV
Аудио 1: MP2, 2ch., 192 kb/s
Аудио 1: AC-3, 2ch., 384 kb/s

Команды. Подробности.

Жюри: Михаил Галустян, Гарик Сукачев, Юлий Гусман, Михаил Ефремов, Дмитрий Нагиев, Валдис Пельш
Команды:
Евразы-РостГМУ Ростов-на-Дону
Азия MIX Бишкек
Кефир Нягань
Сборная Физтеха Долгопрудный
ГородЪ ПятигорскЪ Пятигорск
Описание:
Тема сезона: КВН уже не тот
Тема игры: Юг
Визитка: Дорога к югу
Азия MIX
- самый дружелюбный народ
- министр культуры и боксы Кыргызстана
- кыргызская милиция
- часть команды не пройдёт
Сборная Евразийского института
- выбор девушки из зала
- проверка актёрских данных
- в кабинете генподрядчика страительства стадиона "Зенит-Арена"
- в школе стюардов
- подарок
Сборная Физтеха
- о физиках
- на вечеринке
- компьютерная игра "Госдума РФ"
Кефир
- представление команды заново
- усиление команды
- давно вопрос Особи
- разборки с женщиной
- песня про Сердюкова
ГородЪ ПятигорскЪ
- кавказские танцы
- мужской протест
- в гримёрке ТЮЗа
- бараны
- приглашение горца в команду
Триатлон:
Разминочная часть конкурса на этот раз представляет собой вопросы команд друг к другу, ответами на которые команды подготовили зал ко второй, биатлонной части конкурса, в которой стили команд ярко отразились на самих шутках.
Музыкальное Домашнее задание Дикий отдых
Азия MIX
- на корпоративном вечере у Чингизхана
Сборная Физтеха
- виды и классификация дикого отдыха физтеха
Сборная Евразийского института
- история любви
Кефир
- дикий отдых Алисы в зазеркалье
ГородЪ ПятигорскЪ
- "Кавказская пленница" в путаном пересказе Юлика

Результаты игры. Не смотреть!!!

Городъ Пятигорскъ – 11.3, Сборная Физтеха – 11.1, Кефир – 10.7, Азия микс – 10.7, Евразы – 10.0

MediaInfo

Формат : MPEG-TS
Размер файла : 7,02 Гбайт
Продолжительность : 1 ч. 52 м.
Общий поток : 8899 Кбит/сек
Видео
Идентификатор : 2931 (0xB73)
Идентификатор меню : 1 (0x1)
Формат : AVC
Формат/Информация : Advanced Video Codec
Профиль формата : [email protected]
Параметр CABAC формата : Да
Параметр ReFrames формата : 4 кадра
Идентификатор кодека : 27
Продолжительность : 1 ч. 52 м.
Битрейт : 7877 Кбит/сек
Ширина : 1920 пикселей
Высота : 1080 пикселей
Соотношение сторон : 16:9
Частота кадров : 25,000 кадров/сек
Цветовое пространство : YUV
Субдискретизация насыщенности : 4:2:0
Битовая глубина : 8 бит
Тип развёртки : MBAFF
Бит/(Пиксели*Кадры) : 0.152
Размер потока : 6,21 Гбайт (89%)
Аудио #1
Идентификатор : 2932 (0xB74)
Идентификатор меню : 1 (0x1)
Формат : MPEG Audio
Версия формата : Version 1
Профиль формата : Layer 2
Идентификатор кодека : 3
Продолжительность : 1 ч. 52 м.
Вид битрейта : Постоянный
Битрейт : 192 Кбит/сек
Каналы : 2 канала
Частота : 48,0 КГц
Метод сжатия : С потерями
Размер потока : 155 Мбайт (2%)
Язык : Russian
Аудио #2
Идентификатор : 2933 (0xB75)
Идентификатор меню : 1 (0x1)
Формат : AC-3
Формат/Информация : Audio Coding 3
Расширение режима : CM (complete main)
Идентификатор кодека : 129
Продолжительность : 1 ч. 52 м.
Вид битрейта : Постоянный
Битрейт : 384 Кбит/сек
Каналы : 2 канала
Расположение каналов : Front: L R
Частота : 48,0 КГц
Битовая глубина : 16 бит
Метод сжатия : С потерями
Размер потока : 310 Мбайт (4%)
Язык : Russian
Текст
Идентификатор : 2934 (0xB76)-888
Идентификатор меню : 1 (0x1)
Формат : Teletext Subtitle
Язык : Russian
Скриншоты: Продолжительность: ~ 01:46:41
Видеокодек: MPEG-TS (AVC)
Битрейт видео: ~7844 kb/s
Размер кадра: 1920 x 1080
Качество видео: HDTV
Аудио 1: MP2, 2ch., 192 kb/s
Аудио 1: AC-3, 2ch., 384 kb/s

Команды. Подробности. Жюри.

Жюри: Михаил Галустян, Валдис Пельш, Игорь Верник, Михаил Ефремов, Юлий Гусман и Константин Эрнст.
Команды:
Кембридж: (сборная КемТИПП), Кемерово
Гураны: Забайкальский край
Плохая компания: Сборная Красноярского края
Раисы: Иркутск
Факультет журналистики: Санкт-Петербург
Описание:
Тема сезона: КВН уже не тот
Тема игры: Запад
Визитка: Западные ценности
Кембридж:
- очередной состав команды
- бабушка получает в жеке выписку по коммунальным платежам
- отношения между старшим и младшим братом после влюбления младшего
- черезчур разговорчивый человек в транспорте
- сын собирается покататься на сноуборде
- презентация сочинских объектов ВВП
Гураны:
- кто должен представлять команду
- мужчина очень долго не может открыть шампанское на новый год
- встреча бывших на улице
- на предприятии в конце рабочего дня
- дети, узнавшие самую страшную тайну
- весной на улице
- папа сам решил починить планшет
Раисы:
- игра "Угадай мелодию"
- запасной выход
- песня про жюри
- новые актрисы команды
Плохая компания:
- разбили экран
- знакомство с командой
- в семье
- опрос на уроке физкультуры
- случай со "СтопХамовцами"
- в патрульной машине на посту ДПС
- ДТП с пацанами
Факультет журналистики:
- выход декабристов против сибири
- в кабинете мэра Челябинска
- новенький в норвежской тюрьме
- "Вредные советы" для взрослых
- планёрка в кабинете Эрнста
Триатлон:
Разминочная часть конкурса на этот раз представляет собой вопросы команд друг к другу, ответами на которые команды подготовили зал ко второй, биатлонной части конкурса, в которой стили команд ярко отразились на самих шутках.
Музыкальное Домашнее задание: Дикий-дикий Запад
Кембридж:
- двойники вождей и их руководитель
- молодая рок-группа репетирует в гараже
Гураны:
- повествование о Джанго на диком западе
Факультет журналистики:
- не вошедшие в трансляцию церемонии вручения "Оскара" моменты
Плохая компания:
- экзамен о теории русской души в одном из западных ВУЗов
Раисы:
- история о диком западе с инвентарём из магазина хозтовара

Результаты игры. Не смотреть!!!

Плохая компания – 11.8, Раисы – 11.5, Факультет журналистики – 11.2, Кембридж – 10.1, Гураны – 9.3

MediaInfo

Формат : MPEG-TS
Размер файла : 6,61 Гбайт
Продолжительность : 1 ч. 46 м.
Общий поток : 8863 Кбит/сек
Видео
Идентификатор : 2931 (0xB73)
Идентификатор меню : 1 (0x1)
Формат : AVC
Формат/Информация : Advanced Video Codec
Профиль формата : [email protected]
Параметр CABAC формата : Да
Параметр ReFrames формата : 3 кадра
Идентификатор кодека : 27
Продолжительность : 1 ч. 46 м.
Битрейт : 7844 Кбит/сек
Ширина : 1920 пикселей
Высота : 1080 пикселей
Соотношение сторон : 16:9
Частота кадров : 25,000 кадров/сек
Цветовое пространство : YUV
Субдискретизация насыщенности : 4:2:0
Битовая глубина : 8 бит
Тип развёртки : MBAFF
Бит/(Пиксели*Кадры) : 0.151
Размер потока : 5,85 Гбайт (88%)
Аудио #1
Идентификатор : 2932 (0xB74)
Идентификатор меню : 1 (0x1)
Формат : MPEG Audio
Версия формата : Version 1
Профиль формата : Layer 2
Идентификатор кодека : 3
Продолжительность : 1 ч. 46 м.
Вид битрейта : Постоянный
Битрейт : 192 Кбит/сек
Каналы : 2 канала
Частота : 48,0 КГц
Метод сжатия : С потерями
Размер потока : 147 Мбайт (2%)
Язык : Russian
Аудио #2
Идентификатор : 2933 (0xB75)
Идентификатор меню : 1 (0x1)
Формат : AC-3
Формат/Информация : Audio Coding 3
Расширение режима : CM (complete main)
Идентификатор кодека : 129
Продолжительность : 1 ч. 46 м.
Вид битрейта : Постоянный
Битрейт : 384 Кбит/сек
Каналы : 2 канала
Расположение каналов : Front: L R
Частота : 48,0 КГц
Битовая глубина : 16 бит
Метод сжатия : С потерями
Размер потока : 293 Мбайт (4%)
Язык : Russian
Скриншоты: Скриншоты:

[Цитировать]



Показать сообщения:    

Текущее время: 06-Дек 06:00

Часовой пояс: UTC + 3


Вы не можете начинать темы
Вы не можете отвечать на сообщения
Вы не можете редактировать свои сообщения
Вы не можете удалять свои сообщения
Вы не можете голосовать в опросах
Вы не можете прикреплять файлы к сообщениям
Вы не можете скачивать файлы

!ВНИМАНИЕ!
Сайт не предоставляет электронные версии произведений, а занимается лишь коллекционированием и каталогизацией ссылок, присылаемых и публикуемых на форуме нашими читателями. Если вы являетесь правообладателем какого-либо представленного материала и не желаете, чтобы ссылка на него находилась в нашем каталоге, свяжитесь с нами, и мы незамедлительно удалим ее. Файлы для обмена на трекере предоставлены пользователями сайта, и администрация не несет ответственности за их содержание. Просьба не заливать файлы, защищенные авторскими правами, а также файлы нелегального содержания!