[ Сегодня идет свободное скачивание без начисления Download ]


Статистика раздачи
Нет
 
   
 
Top  
 
 
-Хранители снов / Rise of the Guardians (2012) BDRip-« Непослушный , хорошо . Вы лучше верите . »- Русское название: Хранители снов
Оригинальное название: Rise of the Guardians
Год выпуска: 2012
Жанр: Приключения
Режиссер: Питер Рэмси
Персонажи: Крис Пайн, Алек Болдуин, Джуд Лоу, Айла Фишер, Хью Джекман, Дакота Гойо, Хамани Гриффин, Камиль МакФедден, Джорджи Грив, Эмили Нордвинд ...
Перевод: Дублированный
Вид субтитров: Вшитые отключаемые
Язык субтитров: Русские, Украинские, Английские
Описание фильма:
Когда злой дух Кромешник посягает на самое дорогое — детские мечты, Северянин, Ледяной Джек, Кролик, Зубная Фея и Песочный Человек впервые объединяются, чтобы создать команду Хранителей снов…

Дата мировой премьеры: 10 октября 2012
Дата российской премьеры: 22 ноября 2012, «Централ Партнершип»
Дата выхода DVD/Blu-Ray релиза: 25 марта 2013, «Новый Диск»
Продолжительность: 01:37:12
Качество видео: BDRip [HDMaNiAcS]
Видеокодек: MPEG-4 AVC/H.264
Битрейт видео: ~15000 kbps
Размер кадра: 1920x1080
Аудио#1: Русский, DTS 5.1, 1536 kbps [Дублированный]
(Русский: DTS cделан Skazhutin из студийных дубляжных WAV, за что ему огромное спасибо !!!)
Аудио#2: Русский, AC3 5.1, 640 kbps [Дублированный]
Аудио#3: Украинский, AC3 5.1, 640 kbps
Аудио#4: Английский, DTS 5.1, 1536 kbps [Оригинал]
Аудио#5: Английский, AC3 5.1, 640 kbps [Оригинал]

MediaInfo

Общее
Уникальный идентификатор                 : 227634549867825841764208546739343307984 (0xAB40D1D117CCE79CA15278B848AFB4D0)
Полное имя                               : I:\3D\Rise.of.the.Guardians.3D.2012.1080p.BDRip.Half.OU.NNM-Club.ru.mkv
Формат                                   : Matroska
Версия формата                           : Version 4 / Version 2
Размер файла                             : 13,5 Гбайт
Продолжительность                        : 1 ч. 37 м.
Общий поток                              : 19,9 Мбит/сек
Название фильма                          : NNM-Club.ru
Дата кодирования                         : UTC 2013-03-24 01:46:24
Программа кодирования                    : mkvmerge v6.0.0 ('Coming Up For Air') built on Jan 20 2013 09:52:00
Библиотека кодирования                   : libebml v1.3.0 + libmatroska v1.4.0
Видео
Идентификатор                            : 1
Формат                                   : AVC
Формат/Информация                        : Advanced Video Codec
Профиль формата                          : [url=mailto:High@L4.1]High@L4.1[/url]
Параметр CABAC формата                   : Да
Параметр ReFrames формата                : 4 кадра
Идентификатор кодека                     : V_MPEG4/ISO/AVC
Продолжительность                        : 1 ч. 37 м.
Битрейт                                  : 15,0 Мбит/сек
Ширина                                   : 1920 пикселей
Высота                                   : 1080 пикселей
Соотношение сторон                       : 16:9
Режим частоты кадров                     : Постоянный
Частота кадров                           : 23,976 кадра/сек
Цветовое пространство                    : YUV
Субдискретизация насыщенности            : 4:2:0
Битовая глубина                          : 8 бит
Тип развёртки                            : Прогрессивная
Бит/(Пиксели*Кадры)                      : 0.302
Размер потока                            : 9,91 Гбайт (73%)
Библиотека кодирования                   : x264 core 129 r2245 bc13772
Настройки программы                      : cabac=1 / ref=4 / deblock=1:-3:-3 / analyse=0x3:0x113 / me=tesa / subme=11 / psy=1 / psy_rd=0.90:0.00 / mixed_ref=1 / me_range=32 / chroma_me=1 / trellis=2 / 8x8dct=1 / cqm=0 / deadzone=21,11 / fast_pskip=0 / chroma_qp_offset=-2 / threads=12 / lookahead_threads=2 / sliced_threads=0 / nr=0 / decimate=0 / interlaced=0 / bluray_compat=0 / constrained_intra=0 / bframes=7 / b_pyramid=2 / b_adapt=2 / b_bias=0 / direct=3 / weightb=1 / open_gop=0 / weightp=2 / keyint=250 / keyint_min=23 / scenecut=40 / intra_refresh=0 / rc=2pass / mbtree=0 / bitrate=15000 / ratetol=1.0 / qcomp=0.60 / qpmin=10 / qpmax=69 / qpstep=4 / cplxblur=20.0 / qblur=0.5 / ip_ratio=1.40 / pb_ratio=1.25 / aq=1:0.70
Язык                                     : English
Default                                  : Да
Forced                                   : Нет
Аудио #1
Идентификатор                            : 2
Формат                                   : DTS
Формат/Информация                        : Digital Theater Systems
Режим                                    : 16
Параметр Endianness формата              : Big
Идентификатор кодека                     : A_DTS
Продолжительность                        : 1 ч. 37 м.
Вид битрейта                             : Постоянный
Битрейт                                  : 1509 Кбит/сек
Каналы                                   : 6 каналов
Расположение каналов                     : Front: L C R, Side: L R, LFE
Частота                                  : 48,0 КГц
Битовая глубина                          : 24 бит
Метод сжатия                             : С потерями
Размер потока                            : 1,02 Гбайт (8%)
Заголовок                                : DD 5.1 @ 1536 kbps - Dub
Язык                                     : Russian
Default                                  : Да
Forced                                   : Нет
Аудио #2
Идентификатор                            : 3
Формат                                   : AC-3
Формат/Информация                        : Audio Coding 3
Расширение режима                        : CM (complete main)
Параметр Endianness формата              : Big
Идентификатор кодека                     : A_AC3
Продолжительность                        : 1 ч. 37 м.
Вид битрейта                             : Постоянный
Битрейт                                  : 640 Кбит/сек
Каналы                                   : 6 каналов
Расположение каналов                     : Front: L C R, Side: L R, LFE
Частота                                  : 48,0 КГц
Битовая глубина                          : 16 бит
Метод сжатия                             : С потерями
Размер потока                            : 445 Мбайт (3%)
Заголовок                                : DD 5.1 @ 640 kbps - Dub, BD CEE
Язык                                     : Russian
Default                                  : Нет
Forced                                   : Нет
Аудио #3
Идентификатор                            : 4
Формат                                   : AC-3
Формат/Информация                        : Audio Coding 3
Расширение режима                        : CM (complete main)
Параметр Endianness формата              : Big
Идентификатор кодека                     : A_AC3
Продолжительность                        : 1 ч. 37 м.
Вид битрейта                             : Постоянный
Битрейт                                  : 640 Кбит/сек
Каналы                                   : 6 каналов
Расположение каналов                     : Front: L C R, Side: L R, LFE
Частота                                  : 48,0 КГц
Битовая глубина                          : 16 бит
Метод сжатия                             : С потерями
Размер потока                            : 445 Мбайт (3%)
Заголовок                                : DD 5.1 @ 640 kbps - Dub, BD CEE
Язык                                     : Ukrainian
Default                                  : Нет
Forced                                   : Нет
Аудио #4
Идентификатор                            : 5
Формат                                   : DTS
Формат/Информация                        : Digital Theater Systems
Режим                                    : 16
Параметр Endianness формата              : Big
Идентификатор кодека                     : A_DTS
Продолжительность                        : 1 ч. 37 м.
Вид битрейта                             : Постоянный
Битрейт                                  : 1509 Кбит/сек
Каналы                                   : 6 каналов
Расположение каналов                     : Front: L C R, Side: L R, LFE
Частота                                  : 48,0 КГц
Битовая глубина                          : 24 бит
Метод сжатия                             : С потерями
Размер потока                            : 1,02 Гбайт (8%)
Заголовок                                : DD 5.1 @ 1536 kbps
Язык                                     : English
Default                                  : Нет
Forced                                   : Нет
Аудио #5
Идентификатор                            : 6
Формат                                   : AC-3
Формат/Информация                        : Audio Coding 3
Расширение режима                        : CM (complete main)
Параметр Endianness формата              : Big
Идентификатор кодека                     : A_AC3
Продолжительность                        : 1 ч. 37 м.
Вид битрейта                             : Постоянный
Битрейт                                  : 640 Кбит/сек
Каналы                                   : 6 каналов
Расположение каналов                     : Front: L C R, Side: L R, LFE
Частота                                  : 48,0 КГц
Битовая глубина                          : 16 бит
Метод сжатия                             : С потерями
Размер потока                            : 445 Мбайт (3%)
Заголовок                                : DD 5.1 @ 640 kbps
Язык                                     : English
Default                                  : Нет
Forced                                   : Нет
Текст #1
Идентификатор                            : 7
Формат                                   : UTF-8
Идентификатор кодека                     : S_TEXT/UTF8
Идентификатор кодека/Информация          : UTF-8 Plain Text
Заголовок                                : BD
Язык                                     : Russian
Default                                  : Нет
Forced                                   : Нет
Текст #2
Идентификатор                            : 8
Формат                                   : UTF-8
Идентификатор кодека                     : S_TEXT/UTF8
Идентификатор кодека/Информация          : UTF-8 Plain Text
Заголовок                                : BD
Язык                                     : Ukrainian
Default                                  : Нет
Forced                                   : Нет
Текст #3
Идентификатор                            : 9
Формат                                   : UTF-8
Идентификатор кодека                     : S_TEXT/UTF8
Идентификатор кодека/Информация          : UTF-8 Plain Text
Язык                                     : English
Default                                  : Нет
Forced                                   : Нет
Меню
00:00:00.000                             : en:00:00:00.000
00:03:51.481                             : en:00:03:51.481
00:10:34.843                             : en:00:10:34.843
00:16:17.643                             : en:00:16:17.643
00:24:49.363                             : en:00:24:49.363
00:30:38.378                             : en:00:30:38.378
00:36:38.947                             : en:00:36:38.947
00:43:05.166                             : en:00:43:05.166
00:50:22.311                             : en:00:50:22.311
00:58:09.611                             : en:00:58:09.611
01:03:55.331                             : en:01:03:55.331
01:09:12.815                             : en:01:09:12.815
01:14:03.189                             : en:01:14:03.189
01:20:44.923                             : en:01:20:44.923
01:24:51.503                             : en:01:24:51.503
01:28:33.892                             : en:01:28:33.892

Происхождение Русской дороги DTS:

Русский: DTS сделан Skazhutin из студийных дубляжных WAV, за что ему огромное спасибо !!!
Спектр центрального канала: Спектр FL:
Спектр FR:

Дополнительная информация:

• Последний фильм студии DreamWorks Animation, дистрибьютором которого стала компания Paramount.
• Пасхальный кролик предупреждает: «Даже не надейся кролика обогнать». Это шутка с намеком на басню Эзопа о гонке между черепахой и зайцем, в которой победила черепаха.
• Пасхальный кролик открывает в земле кроличью нору и прыгает в нее. Это намек на «Алису в Стране чудес», где кроличья нора ведет в другое измерение.
• Изначально предполагалось, что озвучивать Джека Фроста будет Леонардо ДиКаприо, но он покинул проект во время препродакшна.
• Кристофер Ли, Дуэйн Джонсон, Натали Портман, Хью Лори и Иэн МакШейн рассматривались для озвучивания различных ролей в фильме.
• Аниматоры, сделавшие персонаж Джека, утверждают, что в фильме ему 18 лет. Озвучивавшему его актеру (Крис Пайн) было 32, когда он записывал голос для фильма.
• Зубная фея в фильме представляет собой комбинацию человека и колибри.
• В мастерской во время открытия Северянин слушает и напевает сюиту Игоря Стравинского «Жар-птица».

Рецензия

После такого снова хочешь стать ребенком
В моем детстве не было веры в Пасхального Кролика или Зубную Фею (у меня зубки, кажется, забирала мышка). Но вот в Деда Мороза мы все верили, писали письма и ждали подарков под елкой.
Это пример того фильма, который нужно создавать и показывать, конечно он не целиком и полностью идеален, но он поднимает настроение. Он не только для детей, но и для взрослых, которые, смотря его, вспоминают, какими они были, как хотели не спать ночью и увидеть того, кто кладет подарки под ёлку.
В этом мультики было много моментов, когда можно было улыбнуться, простые моменты, но в них есть жизнь.
У создателей прекрасно получилось сделать мультик современным. Татуировки у Санты, Пасхальный Кролик, который приятно напоминал сумасшедшего кролика из Алисы в Стране чудес, веселая и милая Зубная фея с «кровью и ошметками десны», а Ледяной Джек неотразим, у него запоминающаяся манера двигаться и милое личико. Так же этот мультик невероятно яркий и красочный, а милые пасхальные яйца на маленьких ножках замечательны.
Этот мультик хорошо показывает, то, что страх-это то с чем мы можем справиться. А смех и игра хороший способ отвлечься, и справится со страхом. Мы видим героев, о которых можно будет рассказывать сказки, создавая их собственный мир, в котором нет место страху.
Были бы дети у меня сейчас, и шел бы этот фильм до сих пор в кино, взяла бы ребят в охапку и бегом смотреть этот фильм в кино, а потом по примеру детей из фильма на каток или играть в снежки.
Взрослея, не стоит забывать о радостях, и когда солнце зашло за тучи, важно помнить, что оно скоро вернется и осветит твою жизнь добром.
Удивительно, что этот мультик не был номинирован на Оскар, такое внимание он заслужил без сомнений.
10 из 10
Проверено мною лично на встроенном тв плейере SAMSUNG UE40"D8000Скриншоты: Пожалуйста не уходите с раздачи, дайте скачать другим!!! Время раздачи: с 21:00 до 7:00

[Цитировать]



Показать сообщения:    

Текущее время: 10-Дек 23:27

Часовой пояс: UTC + 3


Вы не можете начинать темы
Вы не можете отвечать на сообщения
Вы не можете редактировать свои сообщения
Вы не можете удалять свои сообщения
Вы не можете голосовать в опросах
Вы не можете прикреплять файлы к сообщениям
Вы не можете скачивать файлы

!ВНИМАНИЕ!
Сайт не предоставляет электронные версии произведений, а занимается лишь коллекционированием и каталогизацией ссылок, присылаемых и публикуемых на форуме нашими читателями. Если вы являетесь правообладателем какого-либо представленного материала и не желаете, чтобы ссылка на него находилась в нашем каталоге, свяжитесь с нами, и мы незамедлительно удалим ее. Файлы для обмена на трекере предоставлены пользователями сайта, и администрация не несет ответственности за их содержание. Просьба не заливать файлы, защищенные авторскими правами, а также файлы нелегального содержания!