[ Сегодня идет свободное скачивание без начисления Download ]


Статистика раздачи
Нет
 
   
 
Top  
 
 
-Серебристый звон ручья (2013) HDTVRip- Русское название: Серебристый звон ручья
Год выпуска: 2013
Производство: Россия - ВайТ Медиа
Жанр: Мелодрама
Перевод: Не требуется (Русский)
Субтитры: Отсутствуют
Дата российской премьеры: 17 марта 2013
Режиссер: Игорь Кечаев
Актеры: Татьяна Полосина, Ада Роговцева, Илья Ильин, Александр Пашков
Описание фильма:
Главная героиня Леся – сирота, живет в глухой деревушке на берегу ручья у своей старенькой бабушки Шуры, которую местные жители считают колдуньей. Но на самом деле Шура потомственная знахарка, обладающая даром лечить людей. Леся с детства помогает бабке собирать травы для целебных отваров, и сама лечит разнообразную живность, которую ей приводят односельчане. Однажды в их деревню приезжает Петр – восстанавливать дом своих бабушки и дедушки и местную разрушенную церковь. Девушка случайно встречает Петра в лесу у ручья и между ними сразу возникает взаимная симпатия. Но Лесе давно не дает проходу Василий - фермер из соседней деревни. Он настроен решительно, и готов на всё, чтобы отвадить от Леси любого ухажера.
Релиз от:

Продолжительность: 01:30:00
Качество видео: HDTVRip
Видеокодек: Xvid
Битрейт видео: ~1965 Кбит/сек
Размер кадра: 720x400
Аудиокодек: AC3, 2 ch
Битрейт аудио: 192 Кбит/сек

MediaInfo:

Общее
Полное имя : Serebristyy.zvon.ruchya.2013.XviD.HDTVRip.avi
Формат : AVI
Формат/Информация : Audio Video Interleave
Размер файла : 1,37 Гбайт
Продолжительность : 1 ч. 30 м.
Общий поток : 2167 Кбит/сек
Программа кодирования : VirtualDubMod 1.5.10.3 | www.virtualdub-fr.org || (build 2550/release)
Библиотека кодирования : VirtualDubMod build 2550/release
Видео
Идентификатор : 0
Формат : MPEG-4 Visual
Профиль формата : Advanced [email protected]
Параметр BVOP формата : 1
Параметр QPel формата : Нет
Параметр GMC формата : Без точки перехода
Параметр матрицы формата : Default (H.263)
Идентификатор кодека : XVID
Идентификатор кодека/Подсказка : XviD
Продолжительность : 1 ч. 30 м.
Битрейт : 1965 Кбит/сек
Ширина : 720 пикселей
Высота : 400 пикселей
Соотношение сторон : 16:9
Частота кадров : 25,000 кадров/сек
Цветовое пространство : YUV
Субдискретизация насыщенности : 4:2:0
Битовая глубина : 8 бит
Тип развёртки : Прогрессивная
Метод сжатия : С потерями
Бит/(Пиксели*Кадры) : 0.273
Размер потока : 1,24 Гбайт (91%)
Библиотека кодирования : XviD 1.2.1 (UTC 2008-12-04)
Аудио
Идентификатор : 1
Формат : AC-3
Формат/Информация : Audio Coding 3
Расширение режима : CM (complete main)
Параметр Endianness формата : Big
Идентификатор кодека : 2000
Продолжительность : 1 ч. 30 м.
Вид битрейта : Постоянный
Битрейт : 192 Кбит/сек
Каналы : 2 канала
Расположение каналов : Front: L R
Частота : 48,0 КГц
Битовая глубина : 16 бит
Метод сжатия : С потерями
Размер потока : 124 Мбайт (9%)
Выравнивание : Разделение по промежуткам
Продолжительность промежутка : 40 мс. (1,00 видеокадр)
Время предзагрузки промежутка : 500 мс.
Скриншоты:

[Цитировать]

Топик был перенесен из форума Новинки кинопроката в форум Мелодрама
Henkok



Показать сообщения:    

Текущее время: 05-Дек 15:36

Часовой пояс: UTC + 3


Вы не можете начинать темы
Вы не можете отвечать на сообщения
Вы не можете редактировать свои сообщения
Вы не можете удалять свои сообщения
Вы не можете голосовать в опросах
Вы не можете прикреплять файлы к сообщениям
Вы не можете скачивать файлы

!ВНИМАНИЕ!
Сайт не предоставляет электронные версии произведений, а занимается лишь коллекционированием и каталогизацией ссылок, присылаемых и публикуемых на форуме нашими читателями. Если вы являетесь правообладателем какого-либо представленного материала и не желаете, чтобы ссылка на него находилась в нашем каталоге, свяжитесь с нами, и мы незамедлительно удалим ее. Файлы для обмена на трекере предоставлены пользователями сайта, и администрация не несет ответственности за их содержание. Просьба не заливать файлы, защищенные авторскими правами, а также файлы нелегального содержания!