[ Сегодня идет свободное скачивание без начисления Download ]


Статистика раздачи
Нет
 
   
 
Top  
 
 
-Стальная бабочка (2012) HDRip- Русское название: Стальная бабочка
Год выпуска: 2012
Производство: Россия / Интерфест
Жанр: Драма, Детектив, Криминал
Перевод: Не требуется [Русский язык]
Субтитры: Отсутствуют
Дата российской премьеры: 1 ноября 2012
Дата выхода DVD релиза: 26 ноября 2012
Дата выхода Blu-Ray релиза: 26 ноября 2012
Режиссер: Ренат Давлетьяров
Продюсер: Ренат Давлетьяров, Александр Котелевский
Актеры: Даша Мельникова, Анатолий Белый, Дарья Мороз, Пётр Винс, Андрей Казаков, Виктор Немец, Елена Галибина, Максим Дромашко, Александр Курицын, Андрей Лебедев, Константин Тополага, Семен Трескунов, Олег Фёдоров, Кирилл Щербина, Игорь Поселенов, Алёша Семченков, Константин Житинев, Александра Булычёва, Сергей Шанин, Илья Ермолов
Описание фильма:
Беглые беспризорники во главе с юной Викой Чумаковой по прозвищу Чума зарабатывают на пропитание дерзкими ограблениями. Попавшись в очередной раз на разбое, Чума вынуждена под давлением полиции стать живой приманкой для серийного убийцы. Если она пополнит список жертв, искать ее никто не станет. Почерк маньяка одинаков, все девушки похожи, а место охоты — лесной массив на окраине Москвы. Для опера Ханина поимка монстра - не просто вопрос чести, но и цена погон. А для Чумы — цена свободы. Общая цель сближает юную беспризорницу и взрослого циничного опера...

Трейлер
Продолжительность: 01:46:41
Качество видео: HDRip
Видеокодек: Xvid
Битрейт видео: ~2291 Кбит/сек
Размер кадра: 720x400
Аудиокодек: AC3, 6 ch
Битрейт аудио: 448 Кбит/сек

MediaInfo:

Общее
Полное имя : Stalnaya.babochka.2012.HDRip.avi
Формат : AVI
Формат/Информация : Audio Video Interleave
Профиль формата : OpenDML
Размер файла : 2,05 Гбайт
Продолжительность : 1 ч. 46 м.
Общий поток : 2752 Кбит/сек
Программа кодирования : VirtualDubMod 1.5.10.2 (build 2540/release)
Библиотека кодирования : VirtualDubMod build 2540/release
Видео
Идентификатор : 0
Формат : MPEG-4 Visual
Профиль формата : Advanced Simple@L5
Параметр BVOP формата : 1
Параметр QPel формата : Нет
Параметр GMC формата : Без точки перехода
Параметр матрицы формата : Выборочная
Идентификатор кодека : XVID
Идентификатор кодека/Подсказка : XviD
Продолжительность : 1 ч. 46 м.
Битрейт : 2291 Кбит/сек
Ширина : 720 пикселей
Высота : 400 пикселей
Соотношение сторон : 16:9
Частота кадров : 24,000 кадра/сек
Цветовое пространство : YUV
Субдискретизация насыщенности : 4:2:0
Битовая глубина : 8 бит
Тип развёртки : Прогрессивная
Метод сжатия : С потерями
Бит/(Пиксели*Кадры) : 0.331
Размер потока : 1,71 Гбайт (83%)
Библиотека кодирования : XviD 1.2.1 (UTC 2008-12-04)
Аудио
Идентификатор : 1
Формат : AC-3
Формат/Информация : Audio Coding 3
Расширение режима : CM (complete main)
Параметр Endianness формата : Big
Идентификатор кодека : 2000
Продолжительность : 1 ч. 46 м.
Вид битрейта : Постоянный
Битрейт : 448 Кбит/сек
Каналы : 6 каналов
Расположение каналов : Front: L C R, Side: L R, LFE
Частота : 48,0 КГц
Битовая глубина : 16 бит
Метод сжатия : С потерями
Размер потока : 342 Мбайт (16%)
Выравнивание : Разделение по промежуткам
Продолжительность промежутка : 42 мс. (1,00 видеокадр)
Время предзагрузки промежутка : 500 мс.

Интересные факты:

Кинотавр, 2012 год
Номинации: Главный приз
-* Маньяка, который нападает в начале фильма на девочку с мольбертом сыграл Ренат Давлетьяров.
* Первая монтажная сборка длилась 2 часа 13 минут.
* В сцене, когда Ханин отправляется на поиски Чумы и под дождем садится в машину, по переднему плану проходит девушка с зонтом — это Дарья Мельникова.
* Татьяну, подругу Ханина, по началу играла другая актриса. Ренат Давлетьяров решил ее заменить, и были пересняты все сцены с ней. У Дарьи Мороз на подготовку к этой роли был всего 1 день.
* Из фильма вырезана целая линия с начальником Ханина.
* В сцене, когда Чума сообщает Ханину, что постирала его свитер, по телевизору идет клип Анны Пингиной на песню «Ласточка». Эта песня звучит в фильме еще 3 раза.
* Во время съемок эпизода в логове беспризорников с потолка свалилась огромная лампа, буквально за секунду до этого режиссер пересадил с этого места актера.
* Персонаж Карлик (Семен Трескунов) по сценарию должен пропадать из фильма, но его игра так понравилась режиссеру, что он не только оставил его, но и придумал для него новую сцену, где он просится идти в парк с Чумой.
* На роль Чумы пробовалось около 300 девушек. Но в топ 10, отобранных кастинг-директором, Дарья Мельникова не вошла.
* Сцена в конце фильма, когда Ханин выходит из кабинета и имитирует разговор по телефону была придумана уже после того, как весь фильм был окончательно смонтирован. Сняли ее в коридоре, рядом с монтажной. Кстати, можно разглядеть, что модель телефона у Ханина уже другая, потому что его игровой телефон к тому времени уже был утерян.
* Место действия большей части фильма - станция метро Измайловская и Измайловский парк
Скриншоты:

[Цитировать]



Показать сообщения:    

Текущее время: 10-Дек 19:43

Часовой пояс: UTC + 3


Вы не можете начинать темы
Вы не можете отвечать на сообщения
Вы не можете редактировать свои сообщения
Вы не можете удалять свои сообщения
Вы не можете голосовать в опросах
Вы не можете прикреплять файлы к сообщениям
Вы не можете скачивать файлы

!ВНИМАНИЕ!
Сайт не предоставляет электронные версии произведений, а занимается лишь коллекционированием и каталогизацией ссылок, присылаемых и публикуемых на форуме нашими читателями. Если вы являетесь правообладателем какого-либо представленного материала и не желаете, чтобы ссылка на него находилась в нашем каталоге, свяжитесь с нами, и мы незамедлительно удалим ее. Файлы для обмена на трекере предоставлены пользователями сайта, и администрация не несет ответственности за их содержание. Просьба не заливать файлы, защищенные авторскими правами, а также файлы нелегального содержания!