[ Сегодня идет свободное скачивание без начисления Download ]


Статистика раздачи
Нет
 
   
 
Top  
 
 
-Брат с другой ланеты / The Brother from Another Planet (1984) DVDRip- Русское название: Брат с другой ланеты
Оригинальное название: The Brother from Another Planet
Год выпуска: 1984
Жанр: Фантастика, мелодрама, комедия
Описание фильма:
Из глубин космоса приземляется на Землю некий маленький челнок, откуда, прыгая на одной уцелевшей ноге, выберется космонавт-пришелец. На следующий день у него отрастёт конечность, и он станет бродить по грязным улочкам Гарлема, всюду и каждым принимаемый за обыденный отброс общества — темнокожего бездомного.
Режиссер: Джон Сэйлз
Актеры: Джо Мортон, Рен Вудс, Леонард Джексон, Дэрил Эдвардс, Регги Рок Байтвуд, Мэгги Рензи, Том Райт, Дэвид Стрэтэйрн, Джон Сэйлз, Билл Коббс, Стив Джеймс
Продолжительность: 01:49:33
Перевод: Многоголосый закадровый

Видеокодек: Xvid
Битрейт видео: ~1521 kbps
Размер кадра: 704x384
Качество видео: DVDRip
Аудиокодек и битрейт:
Английский - AC3 2.0, 192 kbps
Русский - AC3 2.0, 192 kbps

MediaInfo

Общее
Полное имя                               : Brat_s_drugoi_planety.avi
Формат                                   : AVI
Формат/Информация                        : Audio Video Interleave
Размер файла                             : 1,47 Гбайт
Продолжительность                        : 1 ч. 49 м.
Общий поток                              : 1920 Кбит/сек
Программа кодирования                    : VirtualDubMod 1.5.10.2 (build 2540/release)
Библиотека кодирования                   : VirtualDubMod build 2540/release
Видео
Идентификатор                            : 0
Формат                                   : MPEG-4 Visual
Профиль формата                          : Advanced [email protected]
Параметр BVOP формата                    : 2
Параметр QPel формата                    : Нет
Параметр GMC формата                     : Без точки перехода
Параметр матрицы формата                 : Выборочная
Идентификатор кодека                     : XVID
Идентификатор кодека/Подсказка           : XviD
Продолжительность                        : 1 ч. 49 м.
Битрейт                                  : 1521 Кбит/сек
Ширина                                   : 704 пикселя
Высота                                   : 384 пикселя
Соотношение сторон                       : 1,85:1
Частота кадров                           : 23,976 кадра/сек
Цветовое пространство                    : YUV
Субдискретизация насыщенности            : 4:2:0
Битовая глубина                          : 8 бит
Тип развёртки                            : Прогрессивная
Метод сжатия                             : С потерями
Бит/(Пиксели*Кадры)                      : 0.235
Размер потока                            : 1,16 Гбайт (79%)
Библиотека кодирования                   : XviD 65
Аудио #1
Идентификатор                            : 1
Формат                                   : AC-3
Формат/Информация                        : Audio Coding 3
Расширение режима                        : CM (complete main)
Параметр Endianness формата              : Big
Идентификатор кодека                     : 2000
Продолжительность                        : 1 ч. 49 м.
Вид битрейта                             : Постоянный
Битрейт                                  : 192 Кбит/сек
Каналы                                   : 2 канала
Расположение каналов                     : Front: L R
Частота                                  : 48,0 КГц
Битовая глубина                          : 16 бит
Метод сжатия                             : С потерями
Размер потока                            : 150 Мбайт (10%)
Выравнивание                             : Разделение по промежуткам
Продолжительность промежутка             : 42  мс. (1,00 видеокадр)
Время предзагрузки промежутка            : 500  мс.
Аудио #2
Идентификатор                            : 2
Формат                                   : AC-3
Формат/Информация                        : Audio Coding 3
Расширение режима                        : CM (complete main)
Параметр Endianness формата              : Big
Идентификатор кодека                     : 2000
Продолжительность                        : 1 ч. 49 м.
Вид битрейта                             : Постоянный
Битрейт                                  : 192 Кбит/сек
Каналы                                   : 2 канала
Расположение каналов                     : Front: L R
Частота                                  : 48,0 КГц
Битовая глубина                          : 16 бит
Метод сжатия                             : С потерями
Размер потока                            : 150 Мбайт (10%)
Выравнивание                             : Разделение по промежуткам
Продолжительность промежутка             : 42  мс. (1,00 видеокадр)
Время предзагрузки промежутка            : 500  мс.
Скриншоты:

Рецензия, отзыв о фильме

Возможно, самая интересная работа Сэйлза сочетает в себе сатиру с захватывающим, фантастическим сюжетом. Брат (Джо Мортон), беглый раб с безымянной планеты, совершает вынужденную посадку на острове Эллис, и его космический корабль терпит крушение. Он не знает языка, одет в лохмотья, кожа у него смуглая — естественно, все принимают Брата за чернокожего бомжа. Нью-йоркцы относятся к нему с презрением и жалостью. После нескольких обескураживающих контактов с белыми землянами он добирается до Гарлема, где и обретает пристанище в местном баре. Местные выпивохи находят его странноватым, но направляют к социальному работнику, так как видеоигры он, как оказалось, мог ремонтировать одним прикосновением руки. А на хвосте у беглого инопланетного раба уже сидят двое белых инопланетян (Дэвид Стрэтэйрн и Джон Сэйлз), одетых в черное. Их цель — поймать и вернуть беглого раба. Помимо великолепной игры Мортона, фильм сверкает множеством незабываемых находок и виньеток — Америка увидена глазами пришельца, и придумано все это очень забавно. (М. Иванов)
Время раздачи: C 8:00 до 23:00 мск. До первых пяти скачавших.

[Цитировать]



Показать сообщения:    

Текущее время: 05-Дек 15:34

Часовой пояс: UTC + 3


Вы не можете начинать темы
Вы не можете отвечать на сообщения
Вы не можете редактировать свои сообщения
Вы не можете удалять свои сообщения
Вы не можете голосовать в опросах
Вы не можете прикреплять файлы к сообщениям
Вы не можете скачивать файлы

!ВНИМАНИЕ!
Сайт не предоставляет электронные версии произведений, а занимается лишь коллекционированием и каталогизацией ссылок, присылаемых и публикуемых на форуме нашими читателями. Если вы являетесь правообладателем какого-либо представленного материала и не желаете, чтобы ссылка на него находилась в нашем каталоге, свяжитесь с нами, и мы незамедлительно удалим ее. Файлы для обмена на трекере предоставлены пользователями сайта, и администрация не несет ответственности за их содержание. Просьба не заливать файлы, защищенные авторскими правами, а также файлы нелегального содержания!