[ Сегодня идет свободное скачивание без начисления Download ]


Статистика раздачи
Нет
 
   
 
 
 
- Тайные знаки. Странные явления. Серия №3 (2013.03.28) SATRip - Режиссер / Телекомпания: ТВ3
Русское название: Тайные знаки
Год выпуска: 2011
Жанр: Документальный, мистика, непознанное, расследование, наука
Описание:
Людей всегда привлекало неизведанное. Несколько тысячелетий назад люди не могли объяснить, почему день сменяется ночью, а лето зимой. Это боги посылают нам тайные знаки, - думали люди. Сегодня ученым удалось понять и объяснить практически все, что окружает нас. Путешествия в космос и расшифровка человеческого ДНК уже не вызывает ни у кого удивления. Но до сих пор люди сталкиваются с явлениями, которые ни объяснить, ни понять не удалось. Что это? Знаки судьбы или послания иных цивилизаций? А может разгадку этих тайных знаков, скрывает наше собственное сознание...
Ведущий: Андрей Ранев
В выпуске: Люди будущего
Бежать со скоростью 10 метром в сек., или поднимать вес в 500 кг. 200 лет назад никто бы не поверил, что человек на такое способен. Сегодня это уже побитые мировые рекорды. Каким будет человек будущего, сложно даже себе представить. Возможно то, что сегодня мы называем сверхспособностями, лет через 100 будет уметь каждый школьник.
Продолжительность: ~ 00:22:01
Видеокодек: XVID
Битрейт видео: ~1513 kb/s
Размер кадра: 640 x 480
Качество видео: SATRip
Аудиокодек: MP3, 2ch.
Битрейт аудио: 128 kb/s

MediaInfo

Формат : AVI
Формат/Информация : Audio Video Interleave
Размер файла : 258 Мбайт
Продолжительность : 22 м.
Общий поток : 1640 Кбит/сек
Программа кодирования : VirtualDubMod 1.5.10.3 | www.virtualdub-fr.org || (build 2550/release)
Библиотека кодирования : VirtualDubMod build 2550/release
Видео
Идентификатор : 0
Формат : MPEG-4 Visual
Профиль формата : Advanced Simple@L5
Параметр BVOP формата : 2
Параметр QPel формата : Нет
Параметр GMC формата : Без точки перехода
Параметр матрицы формата : Выборочная
Идентификатор кодека : XVID
Идентификатор кодека/Подсказка : XviD
Продолжительность : 22 м.
Битрейт : 1502 Кбит/сек
Ширина : 640 пикселей
Высота : 480 пикселей
Соотношение сторон : 4:3
Частота кадров : 25,000 кадров/сек
Цветовое пространство : YUV
Субдискретизация насыщенности : 4:2:0
Битовая глубина : 8 бит
Тип развёртки : Прогрессивная
Метод сжатия : С потерями
Бит/(Пиксели*Кадры) : 0.196
Размер потока : 237 Мбайт (92%)
Библиотека кодирования : XviD 73
Аудио
Идентификатор : 1
Формат : MPEG Audio
Версия формата : Version 1
Профиль формата : Layer 3
Идентификатор кодека : 55
Идентификатор кодека/Подсказка : MP3
Продолжительность : 22 м.
Вид битрейта : Постоянный
Битрейт : 128 Кбит/сек
Каналы : 2 канала
Частота : 48,0 КГц
Метод сжатия : С потерями
Размер потока : 20,2 Мбайт (8%)
Выравнивание : Соединение по промежуткам
Продолжительность промежутка : 40 мс. (1,00 видеокадр)
Время предзагрузки промежутка : 504 мс.
Библиотека кодирования : LAME3.99r
Настройки программы : -m s -V 4 -q 0 -lowpass 17 -b 128
Скриншоты:

[Цитировать]



Показать сообщения:    

Текущее время: 08-Дек 21:15

Часовой пояс: UTC + 3


Вы не можете начинать темы
Вы не можете отвечать на сообщения
Вы не можете редактировать свои сообщения
Вы не можете удалять свои сообщения
Вы не можете голосовать в опросах
Вы не можете прикреплять файлы к сообщениям
Вы не можете скачивать файлы

!ВНИМАНИЕ!
Сайт не предоставляет электронные версии произведений, а занимается лишь коллекционированием и каталогизацией ссылок, присылаемых и публикуемых на форуме нашими читателями. Если вы являетесь правообладателем какого-либо представленного материала и не желаете, чтобы ссылка на него находилась в нашем каталоге, свяжитесь с нами, и мы незамедлительно удалим ее. Файлы для обмена на трекере предоставлены пользователями сайта, и администрация не несет ответственности за их содержание. Просьба не заливать файлы, защищенные авторскими правами, а также файлы нелегального содержания!