[ Сегодня идет свободное скачивание без начисления Download ]


Статистика раздачи
Нет
 
   
 
Top  
 
 
Красная планета / Red Planet«Они не нашли жизнь на Марсе. Она нашла их сама.»
Год выпуска: 2000
Страна: США, Австралия
Производство: Warner Bros. Pictures, NPV Entertainment
Жанр: Фантастика, боевик, триллер
Режиссер: Энтони Хоффман
В ролях: Вэл Килмер, Кэрри-Энн Мосс, Бенджамин Брэтт, Том Сайзмор, Саймон Бэйкер, Теренс Стэмп, Джессика Б. Мортон, Кэролайн Босси, Боб Нилл, Нил Росс
Перевод: Дублированный + Профессиональный многоголосый + Авторский одноголосый + Оригинал
Субтитры: Русские, Английские
Описание: В 21 веке Земля вымирает, и жить на ней становится все труднее. Ученые надеются основать колонию на Марсе. Команда из шести астронавтов отправляется на планету, чтобы осмотреть планету с целью ее пригодности для жизни.
Однако после полугодового полета к цели при самой посадке, возникают проблемы. Теперь перед астронавтами стоит проблема — как улететь с этой планеты.


Качество: BDRip 720p
Продолжительность: 01:46:30
Формат: MKV
Видео кодек: AVC High@L4.1
Аудио кодек: AC3
Видео: 1280 x 534 (2.397), 23.976 fps, ~5237 kbps, 0.308 bit / pixel
Аудио №1: Русский: 48 kHz, DTS 5.1 ch, ~1510 kbps [Дублированный]
Аудио №2: Русский: 48 kHz, 2 ch, ~192 kbps [Профессиональный многоголосый]
Аудио №3: Русский: 48 kHz, DTS 5.1 ch, ~1510 kbps [Ю.Живов]
Аудио №4: Английский: 48 kHz, DTS 5.1 ch, ~1510 kbps [Оригинал]
Главы: Есть

Media Info

General
Unique ID                      : 201415932832195899202643543415553274799 (0x97874C31995B483FBD273B7D2D6033AF)
Complete name                  : D:\фильмы\Krasnaja.planeta.2000.BDRip.720p.mkv
Format                         : Matroska
Format version                 : Version 1
File size                      : 7.41 GiB
Duration                       : 1h 46mn
Overall bit rate               : 9 961 Kbps
Encoded date                   : UTC 2011-09-19 18:06:29
Writing application            : mkvmerge v2.3.0 ('Freak U') built on Sep  8 2008 18:32:16
Writing library                : libebml v0.7.7 + libmatroska v0.8.1
Video
ID                             : 1
Format                         : AVC
Format/Info                    : Advanced Video Codec
Format profile                 : High@L4.1
Format settings, CABAC         : Yes
Format settings, ReFrames      : 11 frames
Codec ID                       : V_MPEG4/ISO/AVC
Duration                       : 1h 46mn
Bit rate                       : 5 237 Kbps
Width                          : 1 280 pixels
Height                         : 534 pixels
Display aspect ratio           : 2.40:1
Frame rate                     : 23.976 fps
Color space                    : YUV
Chroma subsampling             : 4:2:0
Bit depth                      : 8 bits
Scan type                      : Progressive
Bits/(Pixel*Frame)             : 0.320
Stream size                    : 3.75 GiB (51%)
Writing library                : x264 core 116 r2044 392e762
Encoding settings              : cabac=1 / ref=11 / deblock=1:-3:-3 / analyse=0x3:0x133 / me=esa / subme=10 / psy=1 / psy_rd=1.10:0.10 / mixed_ref=1 / me_range=24 / chroma_me=1 / trellis=2 / 8x8dct=1 / cqm=0 / deadzone=21,11 / fast_pskip=0 / chroma_qp_offset=-3 / threads=12 / sliced_threads=0 / nr=0 / decimate=0 / interlaced=0 / bluray_compat=0 / constrained_intra=0 / bframes=8 / b_pyramid=2 / b_adapt=2 / b_bias=0 / direct=3 / weightb=1 / open_gop=0 / weightp=2 / keyint=250 / keyint_min=23 / scenecut=40 / intra_refresh=0 / rc_lookahead=60 / rc=2pass / mbtree=1 / bitrate=5237 / ratetol=1.0 / qcomp=0.60 / qpmin=0 / qpmax=69 / qpstep=4 / cplxblur=20.0 / qblur=0.5 / vbv_maxrate=50000 / vbv_bufsize=50000 / nal_hrd=none / ip_ratio=1.40 / aq=1:0.60
Language                       : English
Default                        : Yes
Forced                         : No
Audio #1
ID                             : 2
Format                         : DTS
Format/Info                    : Digital Theater Systems
Codec ID                       : A_DTS
Duration                       : 1h 46mn
Bit rate mode                  : Constant
Bit rate                       : 1 510 Kbps
Channel(s)                     : 6 channels
Channel positions              : Front: L C R, Side: L R, LFE
Sampling rate                  : 48.0 KHz
Bit depth                      : 24 bits
Compression mode               : Lossy
Stream size                    : 1.12 GiB (15%)
Title                          : Дубляж
Default                        : Yes
Forced                         : No
Audio #2
ID                             : 3
Format                         : AC-3
Format/Info                    : Audio Coding 3
Mode extension                 : CM (complete main)
Codec ID                       : A_AC3
Duration                       : 1h 46mn
Bit rate mode                  : Constant
Bit rate                       : 192 Kbps
Channel(s)                     : 2 channels
Channel positions              : Front: L R
Sampling rate                  : 48.0 KHz
Bit depth                      : 16 bits
Compression mode               : Lossy
Stream size                    : 146 MiB (2%)
Title                          : Многоголосый
Default                        : No
Forced                         : No
Audio #3
ID                             : 4
Format                         : DTS
Format/Info                    : Digital Theater Systems
Codec ID                       : A_DTS
Duration                       : 1h 46mn
Bit rate mode                  : Constant
Bit rate                       : 1 510 Kbps
Channel(s)                     : 6 channels
Channel positions              : Front: L C R, Side: L R, LFE
Sampling rate                  : 48.0 KHz
Bit depth                      : 24 bits
Compression mode               : Lossy
Stream size                    : 1.12 GiB (15%)
Title                          : Живов
Default                        : No
Forced                         : No
Audio #4
ID                             : 5
Format                         : DTS
Format/Info                    : Digital Theater Systems
Codec ID                       : A_DTS
Duration                       : 1h 46mn
Bit rate mode                  : Constant
Bit rate                       : 1 510 Kbps
Channel(s)                     : 6 channels
Channel positions              : Front: L C R, Side: L R, LFE
Sampling rate                  : 48.0 KHz
Bit depth                      : 24 bits
Compression mode               : Lossy
Stream size                    : 1.12 GiB (15%)
Title                          : English
Default                        : No
Forced                         : No
Text #1
ID                             : 6
Format                         : UTF-8
Codec ID                       : S_TEXT/UTF8
Codec ID/Info                  : UTF-8 Plain Text
Default                        : Yes
Forced                         : No
Text #2
ID                             : 7
Format                         : UTF-8
Codec ID                       : S_TEXT/UTF8
Codec ID/Info                  : UTF-8 Plain Text
Default                        : No
Forced                         : No
Menu
00:00:00.000                   : :Mission Personnel (Credits)
00:03:37.843                   : :Interesting Questions
00:06:21.423                   : :Shower Power
00:08:14.119                   : :Amee and Other Ladies
00:10:42.100                   : :Party Animals
00:14:51.891                   : :Gamma Burst
00:18:35.531                   : :Launch and Shutdown
00:23:05.134                   : :Crash Landing
00:26:15.616                   : :Zero-Gravity Fire
00:27:44.663                   : :Power Up, Man Down
00:31:12.579                   : :Staying Behind
00:35:11.818                   : :What Happened to Hab?
00:39:45.633                   : :Over the Edge
00:44:43.014                   : :Precious Breath
00:49:30.926                   : :Billion-Dollar Campfire
00:51:53.319                   : :Military Mode
00:55:38.377                   : :Daylight, Green Light
00:58:19.454                   : :Contact
01:02:37.337                   : :Moving Ground
01:06:52.175                   : :Only Two
01:08:39.657                   : :Ice Storm
01:11:26.240                   : :Watching One's Back
01:13:33.576                   : :Amee's Target
01:16:01.056                   : :A Nematode's Life
01:19:40.025                   : :Sacrificial Blowtorch
01:23:35.260                   : :Cosmos
01:27:26.992                   : :What Gallagher Misses
01:30:04.649                   : :'bye, Sweetie
01:34:50.977                   : :Rendezvous in Space
01:40:46.290                   : :Memento of Faith
01:42:18.716                   : :End Credits

Скриншоты

[Цитировать]



Показать сообщения:    

Текущее время: 11-Дек 14:50

Часовой пояс: UTC + 3


Вы не можете начинать темы
Вы не можете отвечать на сообщения
Вы не можете редактировать свои сообщения
Вы не можете удалять свои сообщения
Вы не можете голосовать в опросах
Вы не можете прикреплять файлы к сообщениям
Вы не можете скачивать файлы

!ВНИМАНИЕ!
Сайт не предоставляет электронные версии произведений, а занимается лишь коллекционированием и каталогизацией ссылок, присылаемых и публикуемых на форуме нашими читателями. Если вы являетесь правообладателем какого-либо представленного материала и не желаете, чтобы ссылка на него находилась в нашем каталоге, свяжитесь с нами, и мы незамедлительно удалим ее. Файлы для обмена на трекере предоставлены пользователями сайта, и администрация не несет ответственности за их содержание. Просьба не заливать файлы, защищенные авторскими правами, а также файлы нелегального содержания!