[ Сегодня идет свободное скачивание без начисления Download ]


Статистика раздачи
Нет
 
   
 
Top  
 
 
-Американский папа (8 сезон, Серии 1-11) / American Dad (2012-2013 гг.) [1080p] WEB-DLRip (Обновляемая раздача)- Русское название: Американский папа
Оригинальное название: American Dad
Год выпуска: 2012-2013 гг.
Жанр: Комедия
Описание:
Американский папаша 7 сезон – мультипликационный сериал, единственный в своем роде. Он повествует о жизни семейства Смитов. Это настоящий сатирический мультик, который одновременно и продвигает идею американской жизни, и высмеивает недостатки американского способа жизни. В некотором роде «Американский папаша» напоминает брутальных Гриффинов – создателем обоих мультипликационных сериалов является Сет Макфарлейн. Новый, седьмой, сезон обещает быть еще веселее.
Режиссер: Сет Макфарлейн
Персонажи: Seth MacFarlane as Stan Smith and Roger the Alien, Wendy Schaal as Francine Smith, Scott Grimes as Steve Smith, Rachael MacFarlane as Hayley Smith, Dee Bradley Baker as Klaus
Продолжительность: 11 х 00:22:00
Перевод: Многоголосый закадровый
Автор перевода: Little, NiFiGaSeBe!, opel
Релиз группа: FiliZa Studio
Формат: MKV
Видеокодек: AVC
Битрейт видео: ~5000 kb/s
Размер кадра: 1912x1072
Качество видео: WEB-DLRip
Аудио 1: 192 kb/s VBR, Dolby AC3 48000Hz Русский [FiliZa Studio]
Аудио 2: 384 kb/s VBR, Dolby AC3 48000Hz English


Технические параметры всех файлов одинаковы.

Список серий:

01. Love, American Dad Style
02. Killer Vacation
03. Can I Be Frank with You?
04. American Stepdad
05. Why Can't We Be Friends?
06. Ad-Ventures in Haleysitting
07. National Treasure 4: Baby Franny: She's Doing Well - The Hole Story
08. Finger Lenting Good
09. The Adventures of Twill Ongenbone and His Boy Jabari
10. Blood Crieth Unto Heaven
11. Max Jets

MediaInfo

Формат : Matroska
Версия формата : Version 2
Размер файла : 871 Мбайт
Продолжительность : 21 м.
Общий поток : 5623 Кбит/сек
Дата кодирования : UTC 2012-11-15 17:56:43
Программа кодирования : mkvmerge v5.8.0 ('No Sleep / Pillow') built on Sep 2 2012 15:37:04
Библиотека кодирования : libebml v1.2.3 + libmatroska v1.3.0
Видео
Идентификатор : 2
Формат : AVC
Формат/Информация : Advanced Video Codec
Профиль формата : High@L4.0
Параметр CABAC формата : Да
Параметр ReFrames формата : 4 кадра
Идентификатор кодека : V_MPEG4/ISO/AVC
Продолжительность : 21 м.
Битрейт : 4935 Кбит/сек
Ширина : 1912 пикселей
Высота : 1072 пикселя
Соотношение сторон : 16:9
Частота кадров : 23,976 кадра/сек
Цветовое пространство : YUV
Субдискретизация насыщенности : 4:2:0
Битовая глубина : 8 бит
Тип развёртки : Прогрессивная
Бит/(Пиксели*Кадры) : 0.100
Размер потока : 764 Мбайт (88%)
Язык : English
Default : Да
Forced : Нет
Основные цвета : BT.709-5, BT.1361, IEC 61966-2-4, SMPTE RP177
Характеристики трансфера : BT.709-5, BT.1361
Коэффициенты матрицы : BT.709-5, BT.1361, IEC 61966-2-4 709, SMPTE RP177
Аудио #1
Идентификатор : 1
Формат : AC-3
Формат/Информация : Audio Coding 3
Расширение режима : CM (complete main)
Идентификатор кодека : A_AC3
Продолжительность : 21 м.
Вид битрейта : Постоянный
Битрейт : 192 Кбит/сек
Каналы : 2 канала
Расположение каналов : Front: L R
Частота : 48,0 КГц
Битовая глубина : 16 бит
Метод сжатия : С потерями
Задержка видео : 1 с. 400 мс.
Размер потока : 29,7 Мбайт (3%)
Заголовок : Filiza Studio
Язык : Russian
Default : Да
Forced : Нет
Аудио #2
Идентификатор : 3
Формат : AC-3
Формат/Информация : Audio Coding 3
Расширение режима : CM (complete main)
Идентификатор кодека : A_AC3
Продолжительность : 21 м.
Вид битрейта : Постоянный
Битрейт : 384 Кбит/сек
Каналы : 6 каналов
Расположение каналов : Front: L C R, Side: L R, LFE
Частота : 48,0 КГц
Битовая глубина : 16 бит
Метод сжатия : С потерями
Задержка видео : 10 мс.
Размер потока : 59,5 Мбайт (7%)
Заголовок : Original
Язык : English
Default : Нет
Forced : Нет
Скриншоты:
Время раздачи: 24/7 - круглосуточно

[Цитировать]

Топик был перенесен из форума Другие мультсериалы в форум Зарубежные мультфильмы
Prizr@k



Показать сообщения:    

Текущее время: 09-Дек 20:26

Часовой пояс: UTC + 3


Вы не можете начинать темы
Вы не можете отвечать на сообщения
Вы не можете редактировать свои сообщения
Вы не можете удалять свои сообщения
Вы не можете голосовать в опросах
Вы не можете прикреплять файлы к сообщениям
Вы не можете скачивать файлы

!ВНИМАНИЕ!
Сайт не предоставляет электронные версии произведений, а занимается лишь коллекционированием и каталогизацией ссылок, присылаемых и публикуемых на форуме нашими читателями. Если вы являетесь правообладателем какого-либо представленного материала и не желаете, чтобы ссылка на него находилась в нашем каталоге, свяжитесь с нами, и мы незамедлительно удалим ее. Файлы для обмена на трекере предоставлены пользователями сайта, и администрация не несет ответственности за их содержание. Просьба не заливать файлы, защищенные авторскими правами, а также файлы нелегального содержания!