[ Сегодня идет свободное скачивание без начисления Download ]


Статистика раздачи
Нет
 
   
 
Top  
 
 
-Американский папа (8 сезон, Серии 1-10) / American Dad (2012-2013 гг.) WEB-DLRip- Русское название: Американский папа
Оригинальное название: American Dad
Год выпуска: 2012-2013 гг.
Жанр: Комедия
Описание:
Американский папаша 7 сезон – мультипликационный сериал, единственный в своем роде. Он повествует о жизни семейства Смитов. Это настоящий сатирический мультик, который одновременно и продвигает идею американской жизни, и высмеивает недостатки американского способа жизни. В некотором роде «Американский папаша» напоминает брутальных Гриффинов – создателем обоих мультипликационных сериалов является Сет Макфарлейн. Новый, седьмой, сезон обещает быть еще веселее.
Режиссер: Сет Макфарлейн
Персонажи: Seth MacFarlane as Stan Smith and Roger the Alien, Wendy Schaal as Francine Smith, Scott Grimes as Steve Smith, Rachael MacFarlane as Hayley Smith, Dee Bradley Baker as Klaus
Продолжительность: 10 х 00:22:00
Перевод: Многоголосый закадровый
Автор перевода: Little, NiFiGaSeBe!, opel
Релиз группа: FiliZa Studio
Формат: avi
Видеокодек: XviD
Битрейт видео: ~988 kb/s
Размер кадра: 624x352
Качество видео: WEB-DLRip
Аудио 1: 128 kb/s VBR, MP3 44100Hz Русский [FiliZa Studio]
Аудио 2: 128 kb/s VBR, MP3 48000Hz English

Список серий:

01. Love, American Dad Style
02. Killer Vacation
03. Can I Be Frank with You?
04. American Stepdad
05. Why Can't We Be Friends?
06. Ad-Ventures in Haleysitting
07. National Treasure 4: Baby Franny: She's Doing Well - The Hole Story
08. Finger Lenting Good
09. The Adventures of Twill Ongenbone and His Boy Jabari
10. Blood Crieth Unto Heaven
Технические параметры всех файлов одинаковы.

MediaInfo

Формат : AVI
Формат/Информация : Audio Video Interleave
Размер файла : 194 Мбайт
Продолжительность : 21 м.
Общий поток : 1258 Кбит/сек
Программа кодирования : VirtualDubModRus 1.5.10.2 (build 2542/release)
Библиотека кодирования : VirtualDubMod build 2542/release
Видео
Идентификатор : 0
Формат : MPEG-4 Visual
Профиль формата : Advanced [email protected]
Параметр BVOP формата : 2
Параметр QPel формата : Нет
Параметр GMC формата : Без точки перехода
Параметр матрицы формата : Default (H.263)
Идентификатор кодека : XVID
Идентификатор кодека/Подсказка : XviD
Продолжительность : 21 м.
Битрейт : 988 Кбит/сек
Ширина : 624 пикселя
Высота : 352 пикселя
Соотношение сторон : 16:9
Частота кадров : 23,976 кадра/сек
Цветовое пространство : YUV
Субдискретизация насыщенности : 4:2:0
Битовая глубина : 8 бит
Тип развёртки : Прогрессивная
Метод сжатия : С потерями
Бит/(Пиксели*Кадры) : 0.188
Размер потока : 153 Мбайт (79%)
Библиотека кодирования : XviD 1.2.1 (UTC 2008-12-04)
Аудио #1
Идентификатор : 1
Формат : MPEG Audio
Версия формата : Version 1
Профиль формата : Layer 3
Идентификатор кодека : 55
Идентификатор кодека/Подсказка : MP3
Продолжительность : 21 м.
Вид битрейта : Постоянный
Битрейт : 128 Кбит/сек
Каналы : 2 канала
Частота : 44,1 КГц
Метод сжатия : С потерями
Размер потока : 19,8 Мбайт (10%)
Выравнивание : Разделение по промежуткам
Продолжительность промежутка : 42 мс. (1,00 видеокадр)
Время предзагрузки промежутка : 500 мс.
Аудио #2
Идентификатор : 2
Формат : MPEG Audio
Версия формата : Version 1
Профиль формата : Layer 3
Режим : Joint stereo
Расширение режима : MS Stereo
Идентификатор кодека : 55
Идентификатор кодека/Подсказка : MP3
Продолжительность : 21 м.
Вид битрейта : Постоянный
Битрейт : 128 Кбит/сек
Каналы : 2 канала
Частота : 48,0 КГц
Метод сжатия : С потерями
Размер потока : 19,8 Мбайт (10%)
Выравнивание : Соединение по промежуткам
Продолжительность промежутка : 42 мс. (1,00 видеокадр)
Время предзагрузки промежутка : 504 мс.
Скриншоты:
Время раздачи: 24/7 - круглосуточно

[Цитировать]



Показать сообщения:    

Текущее время: 06-Дек 22:49

Часовой пояс: UTC + 3


Вы не можете начинать темы
Вы не можете отвечать на сообщения
Вы не можете редактировать свои сообщения
Вы не можете удалять свои сообщения
Вы не можете голосовать в опросах
Вы не можете прикреплять файлы к сообщениям
Вы не можете скачивать файлы

!ВНИМАНИЕ!
Сайт не предоставляет электронные версии произведений, а занимается лишь коллекционированием и каталогизацией ссылок, присылаемых и публикуемых на форуме нашими читателями. Если вы являетесь правообладателем какого-либо представленного материала и не желаете, чтобы ссылка на него находилась в нашем каталоге, свяжитесь с нами, и мы незамедлительно удалим ее. Файлы для обмена на трекере предоставлены пользователями сайта, и администрация не несет ответственности за их содержание. Просьба не заливать файлы, защищенные авторскими правами, а также файлы нелегального содержания!