[ Сегодня идет свободное скачивание без начисления Download ]


Статистика раздачи
Нет
 
   
 
Top  
 
 
-Марафон / De Marathon (2012) BDRip- Русское название: Марафон
Оригинальное название: De Marathon
Год выпуска: 2012
Производство: Нидерланды | Eyeworks Film & TV Drama, Inspire Pictures
Жанр: Комедия, Приключения
Перевод: Одноголосый закадровый, любительский
Озвучка / Автор перевода: Андрей Бочаров
Субтитры: Вшитые отключаемые
Язык субтитров: Английский, итальянский
Режиссер: Дидрик Копал | Diederick Koopal
Актеры: Стефан Валле, Марсель Хенсема, Фрэнк Ламмерс, Мимун Оайясса, Синтия Абма, Драган Бакема, Джон Буйсман
Описание фильма:
Автомастерская, в которой работают четверо любящих пивко, карты и сигареты друзей, под угрозой банкротства. Их осеняет "блесящая" идея найти спонсора и пробежать Роттердамский марафон. Вот только лет им уже всем под пятьдесят. Они полны решимости финишировать и уговаривают быть их тренером хромого эмминранта-египтянина. Для главного героя на кону стоит не только гараж, но и собственная жизнь.- - -Дата мировой премьеры: 18 октября 2012
Продолжительность: 01:51:51
Качество видео: BDRip 1080p
Видеокодек: MPEG-4 AVC/H.264
Видео: H.264, 9011 Kбит/с, 1920x804
Аудио #1: Русский: AC3, 2.0, 192 Кбит/сек - одноголосый закадровый
Аудио #2: Голландский: DTS, 5.1, 1536 Кбит/сек

MediaInfo:

Общее
Уникальный идентификатор : 199806433161473075366509813056014828252 (0x965151BBB94EE165BFFB4F962476C2DC)
Полное имя : D:\Video\Marafon.2012.x264.BDRip.1080p.mkv
Формат : Matroska
Версия формата : Version 2
Размер файла : 8,54 Гбайт
Продолжительность : 1 ч. 51 м.
Общий поток : 10,9 Мбит/сек
Название фильма : Марафон / De Marathon / 2012 / BDRip
Дата кодирования : UTC 2013-03-30 20:11:52
Программа кодирования : mkvmerge v5.4.0 ('Piper') built on Mar 10 2012 13:34:39
Библиотека кодирования : libebml v1.2.3 + libmatroska v1.3.0
Видео
Идентификатор : 1
Формат : AVC
Формат/Информация : Advanced Video Codec
Профиль формата : [email protected]
Параметр CABAC формата : Да
Параметр ReFrames формата : 4 кадра
Идентификатор кодека : V_MPEG4/ISO/AVC
Продолжительность : 1 ч. 51 м.
Битрейт : 9011 Кбит/сек
Ширина : 1920 пикселей
Высота : 804 пикселя
Соотношение сторон : 2,40:1
Частота кадров : 23,976 кадра/сек
Цветовое пространство : YUV
Субдискретизация насыщенности : 4:2:0
Битовая глубина : 8 бит
Тип развёртки : Прогрессивная
Бит/(Пиксели*Кадры) : 0.243
Размер потока : 7,04 Гбайт (82%)
Библиотека кодирования : x264 core 130 r2273 b3065e6
Настройки программы : cabac=1 / ref=4 / deblock=1:-1:-1 / analyse=0x3:0x113 / me=umh / subme=9 / psy=1 / psy_rd=1.00:0.15 / mixed_ref=1 / me_range=24 / chroma_me=1 / trellis=2 / 8x8dct=1 / cqm=0 / deadzone=21,11 / fast_pskip=1 / chroma_qp_offset=-3 / threads=6 / lookahead_threads=1 / sliced_threads=0 / nr=0 / decimate=1 / interlaced=0 / bluray_compat=0 / constrained_intra=0 / bframes=8 / b_pyramid=2 / b_adapt=2 / b_bias=0 / direct=1 / weightb=0 / open_gop=0 / weightp=2 / keyint=230 / keyint_min=23 / scenecut=40 / intra_refresh=0 / rc=crf / mbtree=0 / crf=18.0 / qcomp=0.60 / qpmin=0 / qpmax=69 / qpstep=4 / ip_ratio=1.40 / pb_ratio=1.30 / aq=1:1.00
Язык : Dutch
Default : Да
Forced : Нет
Аудио #1
Идентификатор : 2
Формат : AC-3
Формат/Информация : Audio Coding 3
Расширение режима : CM (complete main)
Идентификатор кодека : A_AC3
Продолжительность : 1 ч. 51 м.
Вид битрейта : Постоянный
Битрейт : 192 Кбит/сек
Каналы : 2 канала
Расположение каналов : Front: L R
Частота : 48,0 КГц
Битовая глубина : 16 бит
Метод сжатия : С потерями
Размер потока : 154 Мбайт (2%)
Заголовок : VO (Андрей Бочаров)
Язык : Russian
Default : Да
Forced : Нет
Аудио #2
Идентификатор : 3
Формат : DTS
Формат/Информация : Digital Theater Systems
Идентификатор кодека : A_DTS
Продолжительность : 1 ч. 51 м.
Вид битрейта : Постоянный
Битрейт : 1510 Кбит/сек
Каналы : 6 каналов
Расположение каналов : Front: L C R, Side: L R, LFE
Частота : 48,0 КГц
Битовая глубина : 24 бит
Метод сжатия : С потерями
Размер потока : 1,18 Гбайт (14%)
Заголовок : Dutch DTS 1536
Язык : Dutch
Default : Нет
Forced : Нет
Текст #1
Идентификатор : 4
Формат : UTF-8
Идентификатор кодека : S_TEXT/UTF8
Идентификатор кодека/Информация : UTF-8 Plain Text
Заголовок : English
Язык : English
Default : Нет
Forced : Нет
Текст #2
Идентификатор : 5
Формат : UTF-8
Идентификатор кодека : S_TEXT/UTF8
Идентификатор кодека/Информация : UTF-8 Plain Text
Заголовок : Italian
Язык : Italian
Default : Нет
Forced : Нет
Скриншоты:
Время раздачи: с 10:00 до 20:00 (GMT+2) - до 10 скачавшихНе забываем говорить

[Цитировать]

Топик был перенесен из форума Новинки кинопроката (HD Video) в форум Зарубежное кино (HD Video)
Bootch



Показать сообщения:    

Текущее время: 06-Дек 15:15

Часовой пояс: UTC + 3


Вы не можете начинать темы
Вы не можете отвечать на сообщения
Вы не можете редактировать свои сообщения
Вы не можете удалять свои сообщения
Вы не можете голосовать в опросах
Вы не можете прикреплять файлы к сообщениям
Вы не можете скачивать файлы

!ВНИМАНИЕ!
Сайт не предоставляет электронные версии произведений, а занимается лишь коллекционированием и каталогизацией ссылок, присылаемых и публикуемых на форуме нашими читателями. Если вы являетесь правообладателем какого-либо представленного материала и не желаете, чтобы ссылка на него находилась в нашем каталоге, свяжитесь с нами, и мы незамедлительно удалим ее. Файлы для обмена на трекере предоставлены пользователями сайта, и администрация не несет ответственности за их содержание. Просьба не заливать файлы, защищенные авторскими правами, а также файлы нелегального содержания!