[ Сегодня идет свободное скачивание без начисления Download ]


Статистика раздачи
Нет
 
   
 
Top  
 
 
Престиж / The Prestige
Страна: США, Великобритания
Жанр: триллер, фантастика, драма
Год выпуска: 2006
Продолжительность: 2:10:29
Перевод: Профессиональный (дублированный), профессиональный (двухголосый закадровый), 2 x профессиональный (многоголосый закадровый), 4 x авторский (одноголосый закадровый)
Режиссер: Кристофер Нолан / Christopher Nolan
В ролях: Хью Джекман, Кристиан Бэйл, Майкл Кейн, Пайпер Перабо, Ребекка Холл, Скарлетт Йоханссон, Саманта Мэхурин, Дэвид Боуи, Энди Серкис и др.
Описание: Роберт и Альфред — фокусники-иллюзионисты, которые на рубеже XIX и XX веков соперничали друг с другом в Лондоне. С годами их дружеская конкуренция на профессиональной почве перерастает в настоящую войну. Они готовы на все, чтобы выведать друг у друга секреты фантастических трюков и сорвать их исполнение. Непримиримая вражда, вспыхнувшая между ними, начинает угрожать жизни окружающих их людей...- -Тип релиза: BDRip 1080p
Контейнер: MKV
Видео: 1920x816p, 23,976 fps, x264, 9500 kbps
Аудио:
1. Русский AC3 5.1, 48 khz, 640 kbps |Дубляж|
2. Русский DTS 5.1, 48 khz, 1536 kbps |Гаврилов|
3. Русский DTS 5.1, 48 khz, 1536 kbps |Визгунов|
4. Русский DTS 5.1, 48 khz, 1536 kbps |Сербин|
5. Русский DTS 5.1, 48 khz, 1536 kbps |Гланц и Королева|
6. Русский DTS 5.1, 48 khz, 1536 kbps |Королев|
7. Украинский AC3 2.0, 48 khz, 192 kbps |Многоголосый (Так Треба Продакшн)|
8. Украинский AC3 2.0, 48 khz, 192 kbps |Многоголосый (ICTV)|
9. Английский DTS 5.1, 48 khz, 1536 kbps
10. Английский AC3 2.0, 48 khz, 192 kbps |Commentary|
Cубтитры: русские, украинские, английские (SRT)
Скриншоты:

x264 log

avs [info]: 1920x816p 1:1 @ 24000/1001 fps (cfr)
x264 [info]: using SAR=1/1
x264 [info]: using cpu capabilities: MMX2 SSE2Fast SSSE3 FastShuffle SSE4.1 Cache64
x264 [info]: profile High, level 4.1
x264 [info]: frame I:1405 Avg QP:15.78 size:157789
x264 [info]: frame P:38396 Avg QP:17.54 size: 83096
x264 [info]: frame B:147926 Avg QP:19.48 size: 39747
x264 [info]: consecutive B-frames: 2.3% 1.7% 4.6% 15.4% 16.9% 42.2% 8.7% 5.7% 1.8% 0.7%
x264 [info]: mb I I16..4: 5.2% 90.4% 4.4%
x264 [info]: mb P I16..4: 1.3% 18.7% 0.9% P16..4: 39.5% 28.0% 4.1% 0.1% 0.1% skip: 7.4%
x264 [info]: mb B I16..4: 0.1% 0.8% 0.1% B16..8: 49.1% 15.7% 3.8% direct: 9.4% skip:21.1% L0:46.7% L1:45.1% BI: 8.1%
x264 [info]: 8x8 transform intra:89.0% inter:57.1%
x264 [info]: direct mvs spatial:99.2% temporal:0.8%
x264 [info]: coded y,uvDC,uvAC intra: 92.0% 79.9% 47.6% inter: 48.1% 33.5% 2.1%
x264 [info]: i16 v,h,dc,p: 59% 10% 11% 20%
x264 [info]: i8 v,h,dc,ddl,ddr,vr,hd,vl,hu: 9% 6% 9% 11% 15% 14% 13% 12% 12%
x264 [info]: i4 v,h,dc,ddl,ddr,vr,hd,vl,hu: 9% 6% 3% 10% 16% 16% 15% 12% 13%
x264 [info]: i8c dc,h,v,p: 44% 21% 20% 14%
x264 [info]: Weighted P-Frames: Y:13.1% UV:8.2%
x264 [info]: ref P L0: 42.9% 9.0% 25.0% 11.5% 10.3% 1.2% 0.2%
x264 [info]: ref B L0: 72.7% 19.0% 6.5% 1.8%
x264 [info]: ref B L1: 90.7% 9.3%
x264 [info]: kb/s:9493.92

MediaInfo

General
Unique ID : 182336345737817445746543783667050255535 (0x892CB3EC0E0878BDB74FC5BDF3B894AF)
Complete name : K:\The.Prestige.2006.1080р.BluRay.6xRus.2xUkr.2xEng.mkv
Format : Matroska
Format version : Version 4 / Version 2
File size : 18.0 GiB
Duration : 2h 10mn
Overall bit rate : 19.8 Mbps
Encoded date : UTC 2013-03-28 14:05:33
Writing application : mkvmerge v6.0.0 ('Coming Up For Air') built on Jan 20 2013 09:52:00
Writing library : libebml v1.3.0 + libmatroska v1.4.0
Video
ID : 1
Format : AVC
Format/Info : Advanced Video Codec
Format profile : High@L4.1
Format settings, CABAC : Yes
Format settings, ReFrames : 5 frames
Muxing mode : Container profile=Unknown@0.0
Codec ID : V_MPEG4/ISO/AVC
Duration : 2h 10mn
Bit rate : 9 500 Kbps
Width : 1 920 pixels
Height : 816 pixels
Display aspect ratio : 2.35:1
Frame rate mode : Constant
Frame rate : 23.976 fps
Color space : YUV
Chroma subsampling : 4:2:0
Bit depth : 8 bits
Scan type : Progressive
Bits/(Pixel*Frame) : 0.253
Stream size : 8.30 GiB (46%)
Writing library : x264 core 114 r1913+448 e7f23ef
Encoding settings : cabac=1 / ref=5 / deblock=1:-3:-3 / analyse=0x3:0x133 / me=umh / subme=10 / psy=1 / fade_compensate=0.00 / psy_rd=1.00:0.00 / mixed_ref=1 / me_range=32 / chroma_me=1 / trellis=2 / 8x8dct=1 / cqm=0 / deadzone=21,11 / fast_pskip=0 / chroma_qp_offset=-2 / threads=3 / sliced_threads=0 / nr=0 / decimate=1 / interlaced=0 / constrained_intra=0 / fgo=0 / bframes=9 / b_pyramid=2 / b_adapt=2 / b_bias=0 / direct=3 / weightb=1 / open_gop=0 / weightp=2 / keyint=250 / keyint_min=23 / scenecut=40 / intra_refresh=0 / rc=2pass / mbtree=0 / bitrate=9500 / ratetol=1.0 / qcomp=0.60 / qpmin=10 / qpmax=51 / qpstep=4 / cplxblur=20.0 / qblur=0.5 / ip_ratio=1.40 / pb_ratio=1.30 / aq=1:1.00
Default : No
Forced : No
Audio #1
ID : 2
Format : AC-3
Format/Info : Audio Coding 3
Mode extension : CM (complete main)
Format settings, Endianness : Big
Codec ID : A_AC3
Duration : 2h 10mn
Bit rate mode : Constant
Bit rate : 640 Kbps
Channel(s) : 6 channels
Channel positions : Front: L C R, Side: L R, LFE
Sampling rate : 48.0 KHz
Bit depth : 16 bits
Compression mode : Lossy
Stream size : 597 MiB (3%)
Title : AC3 5.1 ch 640 kbps Dub
Language : Russian
Default : Yes
Forced : No
Audio #2
ID : 3
Format : DTS
Format/Info : Digital Theater Systems
Mode : 16
Format settings, Endianness : Big
Codec ID : A_DTS
Duration : 2h 10mn
Bit rate mode : Constant
Bit rate : 1 510 Kbps
Channel(s) : 6 channels
Channel positions : Front: L C R, Side: L R, LFE
Sampling rate : 48.0 KHz
Bit depth : 24 bits
Compression mode : Lossy
Stream size : 1.38 GiB (8%)
Title : DTS 5.1 ch 1509 kbps А.Гаврилов
Language : Russian
Default : No
Forced : No
Audio #3
ID : 4
Format : DTS
Format/Info : Digital Theater Systems
Mode : 16
Format settings, Endianness : Big
Codec ID : A_DTS
Duration : 2h 10mn
Bit rate mode : Constant
Bit rate : 1 510 Kbps
Channel(s) : 6 channels
Channel positions : Front: L C R, Side: L R, LFE
Sampling rate : 48.0 KHz
Bit depth : 24 bits
Compression mode : Lossy
Stream size : 1.38 GiB (8%)
Title : DTS 5.1 ch 1509 kbps С.Визгунов
Language : Russian
Default : No
Forced : No
Audio #4
ID : 5
Format : DTS
Format/Info : Digital Theater Systems
Mode : 16
Format settings, Endianness : Big
Codec ID : A_DTS
Duration : 2h 10mn
Bit rate mode : Constant
Bit rate : 1 510 Kbps
Channel(s) : 6 channels
Channel positions : Front: L C R, Side: L R, LFE
Sampling rate : 48.0 KHz
Bit depth : 24 bits
Compression mode : Lossy
Stream size : 1.38 GiB (8%)
Title : DTS 5.1 ch 1509 kbps Ю.Сербмн
Language : Russian
Default : No
Forced : No
Audio #5
ID : 6
Format : DTS
Format/Info : Digital Theater Systems
Mode : 16
Format settings, Endianness : Big
Codec ID : A_DTS
Duration : 2h 10mn
Bit rate mode : Constant
Bit rate : 1 510 Kbps
Channel(s) : 6 channels
Channel positions : Front: L C R, Side: L R, LFE
Sampling rate : 48.0 KHz
Bit depth : 24 bits
Compression mode : Lossy
Stream size : 1.38 GiB (8%)
Title : DTS 5.1 ch 1509 kbps Гланц
Language : Russian
Default : No
Forced : No
Audio #6
ID : 7
Format : DTS
Format/Info : Digital Theater Systems
Mode : 16
Format settings, Endianness : Big
Codec ID : A_DTS
Duration : 2h 10mn
Bit rate mode : Constant
Bit rate : 1 510 Kbps
Channel(s) : 6 channels
Channel positions : Front: L C R, Side: L R, LFE
Sampling rate : 48.0 KHz
Bit depth : 24 bits
Compression mode : Lossy
Stream size : 1.38 GiB (8%)
Title : DTS 5.1 ch 1509 kbps В.Королев
Language : Russian
Default : No
Forced : No
Audio #7
ID : 8
Format : AC-3
Format/Info : Audio Coding 3
Mode extension : CM (complete main)
Format settings, Endianness : Big
Codec ID : A_AC3
Duration : 2h 10mn
Bit rate mode : Constant
Bit rate : 192 Kbps
Channel(s) : 2 channels
Channel positions : Front: L R
Sampling rate : 48.0 KHz
Bit depth : 16 bits
Compression mode : Lossy
Stream size : 179 MiB (1%)
Title : AC3 2 ch 192 kbps MVO ICTV
Language : Ukrainian
Default : No
Forced : No
Audio #8
ID : 9
Format : AC-3
Format/Info : Audio Coding 3
Mode extension : CM (complete main)
Format settings, Endianness : Big
Codec ID : A_AC3
Duration : 2h 10mn
Bit rate mode : Constant
Bit rate : 192 Kbps
Channel(s) : 2 channels
Channel positions : Front: L R
Sampling rate : 48.0 KHz
Bit depth : 16 bits
Compression mode : Lossy
Stream size : 179 MiB (1%)
Title : AC3 2 ch 192 kbps MVO "Так Требв Продакшн"
Language : Ukrainian
Default : No
Forced : No
Audio #9
ID : 10
Format : DTS
Format/Info : Digital Theater Systems
Mode : 16
Format settings, Endianness : Big
Codec ID : A_DTS
Duration : 2h 10mn
Bit rate mode : Constant
Bit rate : 1 510 Kbps
Channel(s) : 6 channels
Channel positions : Front: L C R, Side: L R, LFE
Sampling rate : 48.0 KHz
Bit depth : 24 bits
Compression mode : Lossy
Stream size : 1.38 GiB (8%)
Title : DTS 5.1 ch 1509 kbps
Language : English
Default : No
Forced : No
Audio #10
ID : 11
Format : AC-3
Format/Info : Audio Coding 3
Format profile : Dolby Digital
Mode extension : CM (complete main)
Format settings, Endianness : Big
Codec ID : A_AC3
Duration : 2h 10mn
Bit rate mode : Constant
Bit rate : 192 Kbps
Channel(s) : 2 channels
Channel positions : Front: L R
Sampling rate : 48.0 KHz
Bit depth : 16 bits
Compression mode : Lossy
Stream size : 179 MiB (1%)
Title : AC3 2 ch 192 kbps Commentary
Language : English
Default : No
Forced : No
Text #1
ID : 12
Format : UTF-8
Codec ID : S_TEXT/UTF8
Codec ID/Info : UTF-8 Plain Text
Title : 1
Language : Russian
Default : No
Forced : No
Text #2
ID : 13
Format : UTF-8
Codec ID : S_TEXT/UTF8
Codec ID/Info : UTF-8 Plain Text
Title : 2
Language : Russian
Default : No
Forced : No
Text #3
ID : 14
Format : UTF-8
Codec ID : S_TEXT/UTF8
Codec ID/Info : UTF-8 Plain Text
Language : Ukrainian
Default : No
Forced : No
Text #4
ID : 15
Format : UTF-8
Codec ID : S_TEXT/UTF8
Codec ID/Info : UTF-8 Plain Text
Language : English
Default : No
Forced : No
Menu
00:00:00.000 : en:Introduction
00:03:30.210 : en:"Something Went Wrong..."
00:07:45.465 : en:A Search for Answers
00:11:40.700 : en:The Start of a Great Career
00:16:03.963 : en:Total Devotion to His Art
00:23:19.398 : en:A Strong Knot
00:27:20.389 : en:More in Love With Magic
00:33:59.829 : en:An Effective Form of Misdirection
00:38:46.616 : en:The Great Danton
00:44:34.005 : en:Happiness That Should Have Been Mine
00:49:28.132 : en:Man's Reach Exceeds His Grasp
00:53:28.455 : en:A Complex Illusion
00:59:49.586 : en:The New Transported Man
01:04:01.171 : en:The Mistress of My Enemy
01:08:48.416 : en:Complete Power
01:12:57.832 : en:The Keyword Is the Method
01:17:47.204 : en:Secrets Are My Life
01:23:16.658 : en:Exact Science Is Not an Exact Science
01:35:49.243 : en:An Old Friend
01:40:19.263 : en:Considerable Risk
01:45:17.311 : en:The Prestige
01:49:03.162 : en:A Better Magician
01:55:06.608 : en:Are You Watching Closely?
02:04:59.492 : en:End Credits

[Цитировать]



Показать сообщения:    

Текущее время: 10-Дек 02:16

Часовой пояс: UTC + 3


Вы не можете начинать темы
Вы не можете отвечать на сообщения
Вы не можете редактировать свои сообщения
Вы не можете удалять свои сообщения
Вы не можете голосовать в опросах
Вы не можете прикреплять файлы к сообщениям
Вы не можете скачивать файлы

!ВНИМАНИЕ!
Сайт не предоставляет электронные версии произведений, а занимается лишь коллекционированием и каталогизацией ссылок, присылаемых и публикуемых на форуме нашими читателями. Если вы являетесь правообладателем какого-либо представленного материала и не желаете, чтобы ссылка на него находилась в нашем каталоге, свяжитесь с нами, и мы незамедлительно удалим ее. Файлы для обмена на трекере предоставлены пользователями сайта, и администрация не несет ответственности за их содержание. Просьба не заливать файлы, защищенные авторскими правами, а также файлы нелегального содержания!