[ Сегодня идет свободное скачивание без начисления Download ]


Статистика раздачи
Нет
 
   
 
Top  
 
 
-Гамбит / Gambit (2012) BDRip
«Искусная подделка. Идеальный план»
- Год выпуска: 2012
Производство: Air-Edel Associates, Crime Scene Pictures, Michael Lobell Productions
Страна: США
Жанр: Комедия, Криминал
Режиссер: Майкл Хоффман
Актеры: Колин Фёрт, Кэмерон Диаз, Алан Рикман, Стэнли Туччи, Клорис Личмен, Том Кортни, Сенем Темиз, Анна Скеллерн, Того Игава, Эрика ЛаРоуз
Перевод: Дублированный |Line|
Язык субтитров: Английский
Описание фильма:
История лондонского любителя искусств, задумавшего обмануть богатого коллекционера и заставить его купить фальшивую картину Моне. Для этого он договаривается с разбитной девахой из Техаса. Героиня не имеет никакого отношения к искусству — она работает на родео. Однако она будет выдавать себя за женщину, чей дедушка раздобыл картину в конце Второй мировой войны. Дата мировой премьеры: 7 ноября 2012
Дата российской премьеры: 7 марта 2013, «West»
Продолжительность: 01:29:11
Качество видео: BDRip [MysTeRy]
Видеокодек: MPEG-4 AVC/H.264
Битрейт видео: ~3048 Кбит/сек
Размер кадра: 1280x544
Аудиокодек: AC3 5.1
Битрейт аудио: 448 Кбит/сек

MediaInfo:

Общее
Уникальный идентификатор         : 251257055171646131983293675038778513099 (0xBD06593FC6201E15A8A40F5DF8A6D6CB)
Полное имя                       : H:\Gambit.2012.D.x264.BDRip-MysTeRy.mkv
Формат                           : Matroska
Версия формата                   : Version 4 / Version 2
Размер файла                     : 2,18 Гбайт
Продолжительность                : 1 ч. 29 м.
Общий поток                      : 3498 Кбит/сек
Название фильма                  : Gambit.2012.D.x264.BDRip-MysTeRy
Дата кодирования                 : UTC 2013-03-30 11:35:06
Программа кодирования            : mkvmerge v6.1.0 ('Old Devil') built on Mar  2 2013 14:32:37
Библиотека кодирования           : libebml v1.3.0 + libmatroska v1.4.0
Видео
Идентификатор                    : 1
Формат                           : AVC
Формат/Информация                : Advanced Video Codec
Профиль формата                  : [url=mailto:[email protected]][email protected][/url]
Параметр CABAC формата           : Да
Параметр ReFrames формата        : 12 кадров
Идентификатор кодека             : V_MPEG4/ISO/AVC
Продолжительность                : 1 ч. 29 м.
Битрейт                          : 3048 Кбит/сек
Ширина                           : 1280 пикселей
Высота                           : 544 пикселя
Соотношение сторон               : 2,35:1
Частота кадров                   : 23,976 кадра/сек
Цветовое пространство            : YUV
Субдискретизация насыщенности    : 4:2:0
Битовая глубина                  : 8 бит
Тип развёртки                    : Прогрессивная
Бит/(Пиксели*Кадры)              : 0.183
Размер потока                    : 1,86 Гбайт (85%)
Заголовок                        : ENCODER........: MysTeRy
Библиотека кодирования           : x264 core 130 r2273 b3065e6
Настройки программы              : cabac=1 / ref=12 / deblock=1:-3:-3 / analyse=0x3:0x133 / me=umh / subme=10 / psy=1 / psy_rd=1.00:0.00 / mixed_ref=1 / me_range=32 / chroma_me=1 / trellis=2 / 8x8dct=1 / cqm=0 / deadzone=21,11 / fast_pskip=0 / chroma_qp_offset=-2 / threads=6 / lookahead_threads=1 / sliced_threads=0 / nr=0 / decimate=0 / interlaced=0 / bluray_compat=0 / constrained_intra=0 / bframes=8 / b_pyramid=2 / b_adapt=2 / b_bias=0 / direct=3 / weightb=1 / open_gop=0 / weightp=2 / keyint=250 / keyint_min=23 / scenecut=40 / intra_refresh=0 / rc_lookahead=60 / rc=2pass / mbtree=0 / bitrate=3048 / ratetol=1.0 / qcomp=0.70 / qpmin=0 / qpmax=69 / qpstep=4 / cplxblur=20.0 / qblur=0.5 / vbv_maxrate=50000 / vbv_bufsize=61400 / nal_hrd=none / ip_ratio=1.40 / pb_ratio=1.30 / aq=2:0.90
Язык                             : English
Default                          : Да
Forced                           : Нет
Основные цвета                   : BT.709-5, BT.1361, IEC 61966-2-4, SMPTE RP177
Характеристики трансфера         : BT.709-5, BT.1361
Коэффициенты матрицы             : BT.709-5, BT.1361, IEC 61966-2-4 709, SMPTE RP177
Аудио
Идентификатор                    : 2
Формат                           : AC-3
Формат/Информация                : Audio Coding 3
Расширение режима                : CM (complete main)
Идентификатор кодека             : A_AC3
Продолжительность                : 1 ч. 29 м.
Вид битрейта                     : Постоянный
Битрейт                          : 448 Кбит/сек
Каналы                           : 6 каналов
Расположение каналов             : Front: L C R, Side: L R, LFE
Частота                          : 48,0 КГц
Битовая глубина                  : 16 бит
Метод сжатия                     : С потерями
Размер потока                    : 286 Мбайт (13%)
Заголовок                        : Dub
Язык                             : Russian
Default                          : Да
Forced                           : Нет
Текст
Идентификатор                    : 3
Формат                           : UTF-8
Идентификатор кодека             : S_TEXT/UTF8
Идентификатор кодека/Информация  : UTF-8 Plain Text
Язык                             : English
Default                          : Нет
Forced                           : Нет
Меню
00:00:00.000                     : en:Chapter 1
00:06:52.161                     : en:Chapter 2
00:14:35.291                     : en:Chapter 3
00:21:59.860                     : en:Chapter 4
00:30:34.791                     : en:Chapter 5
00:36:29.061                     : en:Chapter 6
00:44:28.999                     : en:Chapter 7
00:52:37.737                     : en:Chapter 8
01:02:10.017                     : en:Chapter 9
01:11:15.938                     : en:Chapter 10
01:18:32.165                     : en:Chapter 11
01:23:34.009                     : en:Chapter 12

x264:

avs [info]: 1280x544p 1:1 @ 2500000/104271 fps (cfr)
x264 [info]: using SAR=1/1
x264 [info]: using cpu capabilities: MMX2 SSE2Fast SSSE3 SSE4.2 AVX
x264 [info]: profile High, level 4.1
x264 [info]: frame I:1114  Avg QP:14.61  size: 98883
x264 [info]: frame P:29389 Avg QP:17.57  size: 34370
x264 [info]: frame B:97793 Avg QP:19.51  size:  9393
x264 [info]: consecutive B-frames:  2.7%  4.3% 10.1% 16.7% 16.5% 43.3%  4.5%  0.6%  1.3%
x264 [info]: mb I  I16..4:  7.5% 73.1% 19.3%
x264 [info]: mb P  I16..4:  1.7%  7.3%  1.0%  P16..4: 36.5% 22.7% 17.1%  0.7%  0.2%    skip:12.7%
x264 [info]: mb B  I16..4:  0.1%  0.4%  0.1%  B16..8: 36.7% 11.2%  3.5%  direct: 4.7%  skip:43.3%  L0:43.3% L1:42.8% BI:13.9%
x264 [info]: 8x8 transform intra:72.1% inter:57.5%
x264 [info]: direct mvs  spatial:96.4% temporal:3.6%
x264 [info]: coded y,uvDC,uvAC intra: 76.0% 80.9% 68.1% inter: 22.1% 24.5% 14.2%
x264 [info]: i16 v,h,dc,p: 59% 15%  8% 18%
x264 [info]: i8 v,h,dc,ddl,ddr,vr,hd,vl,hu: 13% 10% 10%  9% 12% 12% 11% 11% 12%
x264 [info]: i4 v,h,dc,ddl,ddr,vr,hd,vl,hu: 13% 10%  6%  9% 14% 14% 12% 11% 11%
x264 [info]: i8c dc,h,v,p: 50% 19% 17% 14%
x264 [info]: Weighted P-Frames: Y:1.5% UV:0.6%
x264 [info]: ref P L0: 46.4%  9.5% 17.1%  6.2%  5.5%  3.8%  3.6%  1.9%  1.8%  1.4%  1.4%  1.2%  0.2%  0.0%
x264 [info]: ref B L0: 74.4% 11.3%  5.0%  2.7%  1.8%  1.6%  1.2%  0.8%  0.6%  0.4%  0.2%
x264 [info]: ref B L1: 93.8%  6.2%
x264 [info]: kb/s:3048.18
x264 [total]: encoded 128296 frames, 5.70 fps, 3048.19 kb/s
Скриншоты:



Время раздачи: 16.30-23.00 до 5 скачавших

[Цитировать]

Топик был перенесен из форума Новинки кинопроката в форум Комедия
Henkok



Показать сообщения:    

Текущее время: 04-Дек 21:19

Часовой пояс: UTC + 3


Вы не можете начинать темы
Вы не можете отвечать на сообщения
Вы не можете редактировать свои сообщения
Вы не можете удалять свои сообщения
Вы не можете голосовать в опросах
Вы не можете прикреплять файлы к сообщениям
Вы не можете скачивать файлы

!ВНИМАНИЕ!
Сайт не предоставляет электронные версии произведений, а занимается лишь коллекционированием и каталогизацией ссылок, присылаемых и публикуемых на форуме нашими читателями. Если вы являетесь правообладателем какого-либо представленного материала и не желаете, чтобы ссылка на него находилась в нашем каталоге, свяжитесь с нами, и мы незамедлительно удалим ее. Файлы для обмена на трекере предоставлены пользователями сайта, и администрация не несет ответственности за их содержание. Просьба не заливать файлы, защищенные авторскими правами, а также файлы нелегального содержания!