[ Сегодня идет свободное скачивание без начисления Download ]


Статистика раздачи
Нет
 
   
 
Top  
 
 
-Два дня в Париже / 2 Days in Paris (2007) BDRip-«Город влюбленных... в твою девушку.»- Год выпуска: 2007
Страна: Франция, Германия
Производство:3L Filmproduktion GmbH, Backup Media, Polaris Films, R?zo Films
Жанр: Драма, мелодрама, комедия
Режиссер: Жюли Дельпи
Актеры: Жюли Дельпи, Адам Голдберг, Даниэль Брюль, Мари Пийе, Альбер Дельпи, Алексия Ландо, Адан Жодоровски, Александр Наон
Перевод: Многоголосый закадровый
Язык субтитров: Немецкие на Французкую речь
Описание фильма:
Марион и Джек, пытаясь возродить свои отношения, решают посетить Париж — всемирный город влюбленных. Джек знает, что здесь живут родители Марион, но он не знает, что здесь же живут и несколько ее бывших бойфрендов…

Дата мировой премьеры: 10 февраля 2007
Дата российской премьеры: 6 ноября 2008
Дата выхода DVD релиза: 11 декабря 2008
Продолжительность: 01:40:12
Качество : BDRip
Формат: AVI
Видео кодек: XviD
Аудио кодек: AC3
Видео: 720х384, (1.85:1), 23,976 fps, XviD ~2023 kbps, 0.305 bit/pixel
Аудио #1: 48 kHz, AC3 Dolby Digital 6 ch, 448.00 kbps - (RUS)
Аудио #2: 48 kHz, AC3 Dolby Digital 6 ch, 448.00 kbps - (ENG, FR)
&

MI

Общее
Полное имя : E:\Фильмы М\2.Days.in.Paris.2007.BDRip.avi
Формат : AVI
Формат/Информация : Audio Video Interleave
Профиль формата : OpenDML
Размер файла : 2,06 Гбайт
Продолжительность : 1 ч. 40 м.
Общий поток : 2938 Кбит/сек
Программа кодирования : VirtualDubModRus 1.5.10.2 (build 2542/release)
Библиотека кодирования : VirtualDubMod build 2542/release
Видео
Идентификатор : 0
Формат : MPEG-4 Visual
Профиль формата : Advanced Simple@L5
Параметр BVOP формата : 1
Параметр QPel формата : Нет
Параметр GMC формата : Без точки перехода
Параметр матрицы формата : Выборочная
Режим смешивания : Сжатый битовый поток
Идентификатор кодека : XVID
Идентификатор кодека/Подсказка : XviD
Продолжительность : 1 ч. 40 м.
Битрейт : 2023 Кбит/сек
Ширина : 720 пикселей
Высота : 384 пикселя
Соотношение сторон : 1,85:1
Частота кадров : 23,976 кадра/сек
Цветовое пространство : YUV
Субдискретизация насыщенности : 4:2:0
Битовая глубина : 8 бит
Тип развёртки : Прогрессивная
Метод сжатия : С потерями
Бит/(Пиксели*Кадры) : 0.305
Размер потока : 1,42 Гбайт (69%)
Библиотека кодирования : XviD 65
Аудио #1
Идентификатор : 1
Формат : AC-3
Формат/Информация : Audio Coding 3
Расширение режима : CM (complete main)
Параметр Endianness формата : Big
Идентификатор кодека : 2000
Продолжительность : 1 ч. 40 м.
Вид битрейта : Постоянный
Битрейт : 448 Кбит/сек
Каналы : 6 каналов
Расположение каналов : Front: L C R, Side: L R, LFE
Частота : 48,0 КГц
Битовая глубина : 16 бит
Метод сжатия : С потерями
Размер потока : 321 Мбайт (15%)
Выравнивание : Разделение по промежуткам
Продолжительность промежутка : 42 мс. (1,00 видеокадр)
Время предзагрузки промежутка : 500 мс.
Заголовок : Профессиональный (многоголосый закадровый)
Аудио #2
Идентификатор : 2
Формат : AC-3
Формат/Информация : Audio Coding 3
Расширение режима : CM (complete main)
Параметр Endianness формата : Big
Идентификатор кодека : 2000
Продолжительность : 1 ч. 40 м.
Вид битрейта : Постоянный
Битрейт : 448 Кбит/сек
Каналы : 6 каналов
Расположение каналов : Front: L C R, Side: L R, LFE
Частота : 48,0 КГц
Битовая глубина : 16 бит
Метод сжатия : С потерями
Размер потока : 321 Мбайт (15%)
Выравнивание : Разделение по промежуткам
Продолжительность промежутка : 42 мс. (1,00 видеокадр)
Время предзагрузки промежутка : 500 мс.
Заголовок : Оригинал (Английский)
Скриншоты:

Время раздачи: С 23:00 до 6:00

[Цитировать]



Показать сообщения:    

Текущее время: 10-Дек 15:44

Часовой пояс: UTC + 3


Вы не можете начинать темы
Вы не можете отвечать на сообщения
Вы не можете редактировать свои сообщения
Вы не можете удалять свои сообщения
Вы не можете голосовать в опросах
Вы не можете прикреплять файлы к сообщениям
Вы не можете скачивать файлы

!ВНИМАНИЕ!
Сайт не предоставляет электронные версии произведений, а занимается лишь коллекционированием и каталогизацией ссылок, присылаемых и публикуемых на форуме нашими читателями. Если вы являетесь правообладателем какого-либо представленного материала и не желаете, чтобы ссылка на него находилась в нашем каталоге, свяжитесь с нами, и мы незамедлительно удалим ее. Файлы для обмена на трекере предоставлены пользователями сайта, и администрация не несет ответственности за их содержание. Просьба не заливать файлы, защищенные авторскими правами, а также файлы нелегального содержания!